<?xml version="1.0" standalone="no"?>
<!DOCTYPE svg PUBLIC "-//W3C//DTD SVG 1.1//EN" "http://www.w3.org/Graphics/SVG/1.1/DTD/svg11.dtd" >
<svg xmlns="http://www.w3.org/2000/svg" xmlns:xlink="http://www.w3.org/1999/xlink" version="1.1">
<metadata>
Created by FontForge 20200427 at Mon Feb 17 18:36:27 2014
 By www
Copyright (c) 2005-2006 by Joshua Darden, Inc. All rights reserved.
</metadata>
<defs>
<font id="Omnes-Regular" horiz-adv-x="500" >
  <font-face 
    font-family="Omnes"
    font-weight="400"
    font-stretch="normal"
    units-per-em="1000"
    panose-1="0 0 0 0 0 0 0 0 0 0"
    ascent="750"
    descent="-250"
    x-height="476"
    cap-height="651"
    bbox="-84 -229.333 1049 889"
    underline-thickness="20"
    underline-position="-133"
    unicode-range="U+000D-FB02"
  />
<missing-glyph 
 />
    <glyph glyph-name=".notdef" 
 />
    <glyph glyph-name=".null" horiz-adv-x="0" 
 />
    <glyph glyph-name=".null" horiz-adv-x="0" 
 />
    <glyph glyph-name="nonmarkingreturn" unicode="&#xd;" horiz-adv-x="250" 
 />
    <glyph glyph-name="space" unicode=" " horiz-adv-x="170" 
 />
    <glyph glyph-name="exclam" unicode="!" horiz-adv-x="247" 
d="M119 178q-9 0 -11.5 6.5t-3.5 17.5l-22 410q-1 23 7 31t22 8h25q14 0 22 -8t7 -31l-22 -410q-1 -11 -3.5 -17.5t-12.5 -6.5h-8zM118 -6q-44 0 -44 44v10q0 21 11.5 33t32.5 12h10q22 0 33.5 -12t11.5 -33v-10q0 -44 -45 -44h-10z" />
    <glyph glyph-name="quotedbl" unicode="&#x22;" horiz-adv-x="357" 
d="M247 391q-9 0 -12 6.5t-5 19.5l-19 179q-3 32 7.5 43.5t33.5 11.5t33.5 -11.5t7.5 -43.5l-19 -179q-2 -13 -5 -19.5t-12 -6.5h-10zM99 391q-9 0 -12 6.5t-5 19.5l-19 179q-3 32 7.5 43.5t33.5 11.5t33.5 -11.5t7.5 -43.5l-19 -179q-2 -13 -5 -19.5t-12 -6.5h-10z" />
    <glyph glyph-name="numbersign" unicode="#" horiz-adv-x="651" 
d="M372 -1q0 -1 -3.5 -2t-8.5 -1q-11 0 -23 8.5t-12 34.5q0 13 8 39l30 97h-165l-54 -176q0 -1 -3.5 -2t-8.5 -1q-11 0 -23 8.5t-12 34.5q0 13 8 39l30 97h-94q-31 0 -31 26v5q0 27 31 27h111l2.5 8t6.5 20.5t9 29t10 33.5q13 39 28 90h-93q-31 0 -31 26v5q0 27 31 27h110
l2.5 7.5t6.5 20t8.5 28.5t9.5 32q12 39 27 88q0 1 3.5 2t8.5 1q11 0 23 -8.5t12 -34.5q0 -13 -8 -39l-30 -97h165l54 176q0 1 3.5 2t8.5 1q11 0 23 -8.5t12 -34.5q0 -13 -8 -39l-30 -97h94q31 0 31 -26v-5q0 -27 -31 -27h-112l-55 -181h93q31 0 31 -26v-5q0 -27 -31 -27
h-111zM438 416h-169l-56 -185h169z" />
    <glyph glyph-name="dollar" unicode="$" horiz-adv-x="541" 
d="M237 -10q-46 4 -83 18.5t-63 32.5t-40 38t-14 36q0 11 6 19t13.5 13.5t13.5 7.5t7 1q23 -39 64 -67.5t99 -36.5v249q-35 9 -68.5 22t-59.5 33.5t-42 50.5t-16 74q0 34 14 64t39 53.5t59 38.5t73 20v58q0 18 7 24.5t20 6.5h7q13 0 19.5 -6.5t6.5 -24.5v-57
q44 -3 78.5 -15.5t58.5 -29t37 -34t13 -32.5q0 -11 -6 -19t-13.5 -13.5t-13.5 -7.5t-7 -1q-20 35 -59.5 60t-90.5 31v-240q38 -9 74 -22t65 -34t46.5 -52.5t17.5 -78.5q0 -36 -15 -67.5t-42 -55.5t-64 -39.5t-81 -18.5v-60q0 -18 -7 -24.5t-20 -6.5h-7q-13 0 -19.5 6.5
t-6.5 24.5v61zM243 596q-53 -7 -87.5 -38t-34.5 -76q0 -50 33.5 -73.5t88.5 -38.5v226zM293 51q62 4 100.5 36t38.5 80q0 27 -11 46.5t-30 33.5t-44 24t-54 17v-237z" />
    <glyph glyph-name="percent" unicode="%" horiz-adv-x="732" 
d="M186 347q-31 0 -58.5 12t-47.5 32t-31.5 47t-11.5 58v10q0 31 12 58.5t32 48t47.5 32.5t58.5 12q32 0 59 -11.5t47 -32t31.5 -47.5t11.5 -58v-10q0 -31 -12 -58.5t-32 -48t-47.5 -32.5t-58.5 -12zM113 -8q-1 -1 -6 0t-11 4.5t-10.5 9t-4.5 14.5q0 14 6.5 25t23.5 30
l503 586q1 1 6 0.5t11 -4t10.5 -9.5t4.5 -15q0 -21 -30 -55zM545 -4q-31 0 -58.5 12t-47.5 32t-31.5 47t-11.5 58v10q0 31 12 58.5t32 48t47.5 32.5t58.5 12q32 0 59 -11.5t47 -32t31.5 -47.5t11.5 -58v-10q0 -31 -12 -58.5t-32 -48t-47.5 -32.5t-58.5 -12zM187 399
q39 0 64.5 27t25.5 69v14q0 42 -26 69.5t-65 27.5t-64.5 -27.5t-25.5 -69.5v-14q0 -41 26 -68.5t65 -27.5zM546 48q39 0 64.5 27t25.5 69v14q0 42 -26 69.5t-65 27.5t-64.5 -27.5t-25.5 -69.5v-14q0 -41 26 -68.5t65 -27.5z" />
    <glyph glyph-name="ampersand" unicode="&#x26;" horiz-adv-x="651" 
d="M260 389q70 19 103 47.5t33 74.5q0 39 -26.5 65.5t-68.5 26.5q-48 0 -73 -28.5t-25 -68.5q0 -35 15 -62.5t42 -54.5zM231 333q-60 -18 -99 -52t-39 -96q0 -66 45 -102.5t115 -36.5q58 0 104.5 26t82.5 69zM474 192q39 67 56 151q6 27 17.5 37.5t27.5 10.5t23 -8.5
t6 -11.5q-26 -128 -85 -219l139 -128q1 -1 0 -5.5t-5 -9.5t-12 -9t-20 -4q-10 0 -22 3t-28 18l-89 84q-48 -54 -106.5 -83.5t-126.5 -29.5q-49 0 -90.5 13t-71.5 37.5t-47 61t-17 82.5q0 75 46 120.5t125 68.5q-23 27 -40 59.5t-17 74.5q0 32 12 60t34 49t52.5 33t66.5 12
q34 0 62.5 -11t49.5 -31t33 -46.5t12 -58.5q0 -59 -40 -98.5t-118 -62.5z" />
    <glyph glyph-name="quotesingle" unicode="'" horiz-adv-x="209" 
d="M99 391q-9 0 -12 6.5t-5 19.5l-19 179q-3 32 7.5 43.5t33.5 11.5t33.5 -11.5t7.5 -43.5l-19 -179q-2 -13 -5 -19.5t-12 -6.5h-10z" />
    <glyph glyph-name="parenleft" unicode="(" horiz-adv-x="351" 
d="M317 -198q-42 0 -89 29t-87 84t-66.5 133.5t-26.5 177.5q0 95 26.5 173t66.5 133.5t87 86t89 30.5q14 0 22 -5t8 -19q0 -7 -3.5 -15.5t-5.5 -9.5q-52 -11 -93.5 -45.5t-70 -85t-43.5 -113t-15 -129.5q0 -70 15 -133t43.5 -113.5t70 -84.5t93.5 -45q2 -1 5.5 -9.5
t3.5 -15.5q0 -14 -8 -19t-22 -5z" />
    <glyph glyph-name="parenright" unicode=")" horiz-adv-x="351" 
d="M34 -198q-14 0 -22 5t-8 19q0 7 3.5 15.5t5.5 9.5q52 11 93.5 45t70 84.5t43.5 113.5t15 133q0 67 -15 129.5t-43.5 113t-70 85t-93.5 45.5q-2 1 -5.5 9.5t-3.5 15.5q0 14 8 19t22 5q42 0 89 -30.5t87 -86t66.5 -133.5t26.5 -173q0 -99 -26.5 -177.5t-66.5 -133.5
t-87 -84t-89 -29z" />
    <glyph glyph-name="asterisk" unicode="*" horiz-adv-x="377" 
d="M167 634q1 15 6 20t15 5h4q9 0 14.5 -5t6.5 -20l4 -108l106 29q14 3 21 -0.5t10 -11.5l1 -4q3 -11 0 -17t-17 -11l-102 -39l9.5 -14t20.5 -31q13 -20 30 -46q8 -13 6.5 -20.5t-9.5 -12.5l-3 -2q-8 -5 -15 -4t-17 12l-69 86l-68 -86q-10 -11 -17 -12t-15 4l-3 2
q-8 5 -9.5 12.5t6.5 20.5l60 92l-102 38q-14 5 -17 11t1 17l1 4q2 8 9 11.5t21 0.5q30 -8 53 -14q21 -6 36.5 -10l15.5 -4z" />
    <glyph glyph-name="plus" unicode="+" horiz-adv-x="539" 
d="M78 239q-18 0 -24.5 6.5t-6.5 19.5v6q0 13 6.5 19.5t24.5 6.5h161v163q0 18 7.5 24.5t20.5 6.5h5q13 0 20.5 -6.5t7.5 -24.5v-163h161q18 0 24.5 -6.5t6.5 -19.5v-6q0 -13 -6.5 -19.5t-24.5 -6.5h-161v-174q0 -18 -7.5 -24.5t-20.5 -6.5h-5q-13 0 -20.5 6.5t-7.5 24.5
v174h-161z" />
    <glyph glyph-name="comma" unicode="," horiz-adv-x="209" 
d="M48 -131q-2 -4 -8.5 -5t-13 0.5t-10.5 6.5t-1 13l60 179q7 17 13.5 26t25.5 9h5q12 0 21 -9t9 -26v-4q0 -8 -2.5 -19.5t-13.5 -28.5z" />
    <glyph glyph-name="hyphen" unicode="-" horiz-adv-x="366" 
d="M76 212q-31 0 -31 26v7q0 27 31 27h214q31 0 31 -27v-7q0 -26 -31 -26h-214z" />
    <glyph glyph-name="period" unicode="." horiz-adv-x="209" 
d="M99 -6q-44 0 -44 44v10q0 21 11.5 33t32.5 12h10q22 0 33.5 -12t11.5 -33v-10q0 -44 -45 -44h-10z" />
    <glyph glyph-name="slash" unicode="/" horiz-adv-x="323" 
d="M52 -197q-6 0 -13 1t-13.5 5t-11 11.5t-4.5 20.5t8 39l235 768q0 1 3.5 2t8.5 1q6 0 13 -1t13.5 -4.5t11 -11t4.5 -20.5t-8 -39l-235 -769q0 -1 -3.5 -2t-8.5 -1z" />
    <glyph glyph-name="zero" unicode="0" horiz-adv-x="629" 
d="M313 -12q-60 0 -107.5 20.5t-81 59.5t-51 95t-17.5 126v67q0 70 18 126t51.5 95.5t81 60.5t107.5 21t108 -21t81.5 -60t51.5 -94.5t18 -125.5v-67q0 -70 -18 -126t-52 -95.5t-82 -60.5t-108 -21zM314 47q91 0 141 64t50 180v63q0 116 -50.5 181.5t-141.5 65.5
q-90 0 -139.5 -64.5t-49.5 -180.5v-63q0 -116 50 -181t140 -65z" />
    <glyph glyph-name="one" unicode="1" horiz-adv-x="347" 
d="M168 541q-12 -17 -31 -27t-43 -10q-32 0 -52.5 15.5t-20.5 41.5q0 17 10 27.5t11 9.5q10 -11 23.5 -18t33.5 -7q32 0 54 23t24 55h29q30 0 30 -31v-593q0 -31 -30 -31h-9q-29 0 -29 31v514z" />
    <glyph glyph-name="two" unicode="2" horiz-adv-x="520" 
d="M461 62q32 0 32 -28v-5q0 -29 -32 -29h-376q-43 0 -43 41v20q0 53 17 91t45 67t64 50.5t74 40.5q33 17 64 33t54.5 35t38 42t14.5 53q0 58 -40 91t-110 33q-39 0 -68 -11t-49.5 -29t-33.5 -42t-21 -51q0 -1 -7.5 -1.5t-16 3t-15.5 11.5t-7 23q0 21 14 48.5t42 52.5t70 42
t97 17q99 0 155.5 -50t56.5 -138q0 -42 -16.5 -73.5t-43.5 -55.5t-62 -43.5t-73 -37.5q-35 -17 -67 -35t-56.5 -39.5t-39 -49.5t-14.5 -65v-11h353z" />
    <glyph glyph-name="three" unicode="3" horiz-adv-x="532" 
d="M359 347q61 -20 93.5 -63.5t32.5 -104.5q0 -89 -63 -140t-175 -51q-58 0 -101.5 15.5t-72 37.5t-42.5 46.5t-14 42.5q0 14 6 22t13 12.5t13.5 5.5t6.5 -1q21 -60 72 -91t120 -31q77 0 122.5 35.5t45.5 95.5q0 66 -44.5 100.5t-129.5 34.5h-56q-19 0 -26 8t-7 19v4
q0 15 8 21t23 6h69q72 0 108 30.5t36 84.5t-39.5 84.5t-109.5 30.5q-62 0 -105 -28.5t-65 -73.5q-1 -1 -7 0.5t-13 6t-13 12t-6 18.5q0 17 15 38.5t42 40t65.5 31.5t86.5 13q103 0 160.5 -45t57.5 -127q0 -107 -107 -140z" />
    <glyph glyph-name="four" unicode="4" horiz-adv-x="581" 
d="M375 245v340l-273 -340h273zM527 246q31 0 31 -29v-5q0 -28 -31 -28h-88v-157q0 -31 -29 -31h-9q-12 0 -20 9.5t-8 21.5v157h-285q-23 0 -35.5 10.5t-12.5 25.5v20q0 14 7 26t21 29l257 317q17 22 27.5 30.5t33.5 8.5q30 0 41.5 -11t11.5 -33v-361h88z" />
    <glyph glyph-name="five" unicode="5" horiz-adv-x="528" 
d="M124 367q31 15 66 24.5t78 9.5q51 0 93 -14.5t71.5 -41t46 -64t16.5 -83.5q0 -48 -17 -87t-48.5 -66.5t-76 -42t-100.5 -14.5q-49 0 -90 12.5t-70.5 32t-45.5 42t-16 41.5q0 11 6 18.5t13.5 12t13.5 6.5t7 0q23 -48 69.5 -76t114.5 -28q78 0 125 39.5t47 106.5
q0 66 -43 104.5t-117 38.5q-57 0 -96 -13t-69 -35q-23 3 -33 15t-10 32v272q0 16 11 27t27 11h334q31 0 31 -29v-5q0 -28 -31 -28h-307v-218z" />
    <glyph glyph-name="six" unicode="6" horiz-adv-x="575" 
d="M123 328q33 32 83.5 54.5t107.5 22.5q50 0 91 -14t70 -39.5t44.5 -61.5t15.5 -81v-5q0 -46 -17 -86t-47.5 -68.5t-72 -45t-90.5 -16.5q-63 0 -110 21.5t-78.5 60.5t-47.5 93t-16 120v73q0 71 18 127t51.5 95t81 60t106.5 21q49 0 85.5 -11t61 -27t36.5 -34.5t12 -33.5
q0 -9 -5.5 -16.5t-12 -12.5t-12.5 -7t-7 -1q-26 38 -63.5 61.5t-94.5 23.5q-89 0 -139.5 -62.5t-50.5 -178.5v-32zM124 259q5 -100 50.5 -156.5t129.5 -56.5q36 0 66.5 11t52.5 31t34 48t12 62v6q0 69 -41.5 106.5t-119.5 37.5q-54 0 -104.5 -26t-79.5 -63z" />
    <glyph glyph-name="seven" unicode="7" horiz-adv-x="518" 
d="M420 580h-363q-15 0 -23 8t-8 22v5q0 14 8 23t23 9h402q23 0 31 -8.5t8 -21.5v-6q0 -12 -18 -47l-290 -544q-8 -14 -17 -19t-19 -5q-17 0 -28 12t-9 16z" />
    <glyph glyph-name="eight" unicode="8" horiz-adv-x="569" 
d="M285 46q87 0 130 33.5t43 93.5q0 59 -45.5 94.5t-128.5 35.5q-85 0 -129.5 -35t-44.5 -95q0 -56 45.5 -91.5t129.5 -35.5zM285 362q75 0 114.5 31t39.5 86t-40 89t-115 34q-78 0 -116.5 -33t-38.5 -90q0 -53 40.5 -85t115.5 -32zM174 333q-58 19 -85.5 57.5t-27.5 90.5
q0 39 16 72t45 56.5t70.5 36.5t92.5 13q105 0 163.5 -47.5t58.5 -128.5q0 -52 -27.5 -90.5t-84.5 -58.5q66 -20 98.5 -63t32.5 -101q0 -39 -17.5 -72.5t-49.5 -58t-76.5 -38t-98.5 -13.5q-56 0 -100.5 13t-76 37t-48.5 57.5t-17 73.5q0 57 33.5 100.5t98.5 63.5z" />
    <glyph glyph-name="nine" unicode="9" horiz-adv-x="575" 
d="M452 309q-33 -32 -83.5 -54.5t-107.5 -22.5q-50 0 -91 14t-70 39.5t-44.5 61.5t-15.5 81v5q0 47 17 88t47.5 71.5t72 48.5t90.5 18q119 0 185.5 -77.5t66.5 -217.5v-73q0 -152 -67 -227.5t-195 -75.5q-49 0 -85.5 11t-61 27t-36.5 34.5t-12 33.5q0 9 5.5 16.5t12.5 12.5
t12.5 7t6.5 1q26 -38 63.5 -61.5t94.5 -23.5q98 0 146.5 58t48.5 183v22zM452 379q-4 104 -50 163t-131 59q-36 0 -66.5 -12.5t-52.5 -34.5t-34 -51.5t-12 -63.5v-6q0 -69 41.5 -106.5t119.5 -37.5q55 0 105 26t80 64z" />
    <glyph glyph-name="colon" unicode=":" horiz-adv-x="239" 
d="M114 334q-44 0 -44 44v10q0 21 11.5 33t32.5 12h10q22 0 33.5 -12t11.5 -33v-10q0 -44 -45 -44h-10zM114 -6q-44 0 -44 44v10q0 21 11.5 33t32.5 12h10q22 0 33.5 -12t11.5 -33v-10q0 -44 -45 -44h-10z" />
    <glyph glyph-name="semicolon" unicode=";" horiz-adv-x="239" 
d="M114 334q-44 0 -44 44v10q0 21 11.5 33t32.5 12h10q22 0 33.5 -12t11.5 -33v-10q0 -44 -45 -44h-10zM63 -131q-2 -4 -8.5 -5t-13 0.5t-10.5 6.5t-1 13l60 179q7 17 13.5 26t25.5 9h5q12 0 21 -9t9 -26v-4q0 -8 -2.5 -19.5t-13.5 -28.5z" />
    <glyph glyph-name="less" unicode="&#x3c;" horiz-adv-x="468" 
d="M114 268l263 -137q26 -14 34 -26.5t7 -23.5q-2 -16 -10.5 -24.5t-11.5 -6.5l-327 175q-10 5 -15 12.5t-5 30.5q0 22 5 29.5t15 12.5l327 176q2 1 11 -8t11 -23q2 -11 -6.5 -23t-34.5 -26z" />
    <glyph glyph-name="equal" unicode="=" horiz-adv-x="539" 
d="M88 346q-18 0 -24.5 7t-6.5 20v7q0 13 6.5 20t24.5 7h363q18 0 24.5 -7t6.5 -20v-7q0 -13 -6.5 -20t-24.5 -7h-363zM88 119q-18 0 -24.5 7t-6.5 20v7q0 13 6.5 20t24.5 7h363q18 0 24.5 -7t6.5 -20v-7q0 -13 -6.5 -20t-24.5 -7h-363z" />
    <glyph glyph-name="greater" unicode="&#x3e;" horiz-adv-x="467" 
d="M90 406q-26 14 -34.5 26t-6.5 23q2 14 11 23t11 8l327 -176q10 -5 15 -12.5t5 -29.5q0 -23 -5 -30.5t-15 -12.5l-327 -175q-3 -2 -11.5 6.5t-10.5 24.5q-1 11 7 23.5t34 26.5l263 137z" />
    <glyph glyph-name="question" unicode="?" horiz-adv-x="463" 
d="M205 177q-13 0 -21 5t-7 16q2 50 16.5 82.5t35.5 55t45 38t44.5 31.5t34 35t13.5 49q0 51 -33.5 80.5t-95.5 29.5q-39 0 -66 -12t-45 -31.5t-27.5 -43.5t-13.5 -49q0 -1 -8 -0.5t-17 5t-16.5 13t-7.5 22.5q0 19 11.5 45.5t36 51t63 42t92.5 17.5q45 0 81 -12.5t61 -34.5
t38.5 -52t13.5 -65q0 -41 -15 -67.5t-37 -46.5t-48 -36.5t-48 -36.5t-37 -46.5t-15 -67.5q0 -8 -8 -12.5t-20 -4.5zM203 -6q-44 0 -44 44v10q0 21 11.5 33t32.5 12h10q22 0 33.5 -12t11.5 -33v-10q0 -44 -45 -44h-10z" />
    <glyph glyph-name="at" unicode="@" horiz-adv-x="746" 
d="M447 354q-11 25 -31.5 41.5t-51.5 16.5q-38 0 -61 -26t-23 -69t23 -69.5t60 -26.5q34 0 59 22.5t25 58.5v52zM447 419q3 28 15 37.5t26 9.5q11 0 17 -3.5t6 -5.5v-161q0 -39 13.5 -61.5t48.5 -22.5q21 0 36 11t24.5 30.5t14 46t4.5 57.5q0 58 -19.5 105t-55.5 80t-87 51
t-113 18q-61 0 -112.5 -21t-88.5 -59.5t-57.5 -91.5t-20.5 -116q0 -62 21.5 -114.5t60 -91t92 -60t116.5 -21.5q48 0 89.5 12.5t69.5 30.5q8 5 15.5 8.5t18.5 3.5q7 0 12.5 -4.5t9.5 -10.5t5.5 -11t-0.5 -7q-33 -27 -91.5 -48.5t-128.5 -21.5q-76 0 -139 24t-107.5 68
t-69 106t-24.5 137q0 74 24.5 135.5t68 106t104 69.5t132.5 25q74 0 134 -21t102.5 -60t65.5 -95t23 -126q0 -94 -36.5 -144t-105.5 -50q-42 0 -70 17.5t-36 49.5q-17 -31 -43.5 -48t-62.5 -17q-29 0 -53.5 11t-42.5 31t-28.5 48t-10.5 62q0 68 38.5 109.5t98.5 41.5
q32 0 57.5 -14.5t39.5 -34.5z" />
    <glyph glyph-name="A" unicode="A" horiz-adv-x="609" 
d="M419 271l-116 305l-117 -305h233zM442 211h-279l-70 -184q-7 -18 -17.5 -24.5t-21.5 -6.5q-15 0 -27.5 8t-10.5 12l237 612q5 13 16 19t35 6t35 -6t16 -19l237 -612q2 -4 -10.5 -12t-28.5 -8q-12 0 -23 6.5t-18 24.5z" />
    <glyph glyph-name="B" unicode="B" horiz-adv-x="603" 
d="M115 0q-16 0 -27 11t-11 27v571q0 16 11 27t27 11h207q103 0 157 -43.5t54 -126.5q0 -104 -112 -141q72 -16 106 -58t34 -99q0 -89 -57 -134t-176 -45h-213zM325 358q63 0 100.5 31.5t37.5 84.5q0 112 -141 112h-177v-228h180zM327 61q88 0 126 28t38 93q0 116 -160 116
h-186v-237h182z" />
    <glyph glyph-name="C" unicode="C" horiz-adv-x="660" 
d="M371 -12q-71 0 -130 24.5t-101.5 68.5t-66 105.5t-23.5 135.5t24 136t66.5 106.5t102 69.5t131.5 25q58 0 103 -14.5t75.5 -35t46.5 -42.5t16 -36q0 -13 -6 -21.5t-13.5 -13t-13.5 -6t-7 -0.5q-15 27 -38 47.5t-50 34.5t-56.5 21t-58.5 7q-55 0 -101.5 -20.5t-80 -57
t-52 -87t-18.5 -111.5q0 -60 19 -111t53 -88t80.5 -57.5t101.5 -20.5q72 0 129 34t80 93q0 2 7 0.5t15.5 -6t15 -13t6.5 -21.5q0 -16 -16.5 -40.5t-49 -48t-80 -40.5t-110.5 -17z" />
    <glyph glyph-name="D" unicode="D" horiz-adv-x="672" 
d="M115 0q-16 0 -27 11t-11 27v571q0 16 11 27t27 11h153q84 0 149.5 -22t111 -63t69.5 -101t24 -136t-24.5 -136.5t-70.5 -102.5t-113 -64t-151 -22h-148zM267 60q137 0 211 68.5t74 194.5q0 125 -75 194.5t-209 69.5h-123v-527h122z" />
    <glyph glyph-name="E" unicode="E" horiz-adv-x="576" 
d="M115 0q-16 0 -27 11t-11 27v571q0 16 11 27t27 11h387q31 0 31 -28v-6q0 -28 -31 -28h-357v-223h286q31 0 31 -28v-4q0 -28 -31 -28h-286v-240h363q31 0 31 -27v-6q0 -29 -31 -29h-393z" />
    <glyph glyph-name="F" unicode="F" horiz-adv-x="533" 
d="M106 -4q-29 0 -29 31v582q0 16 11 27t27 11h362q31 0 31 -28v-6q0 -28 -31 -28h-332v-244h251q31 0 31 -28v-4q0 -28 -31 -28h-251v-254q0 -31 -30 -31h-9z" />
    <glyph glyph-name="G" unicode="G" horiz-adv-x="706" 
d="M582 102q-31 -54 -89.5 -84t-137.5 -30q-70 0 -126.5 25t-96 69.5t-61 106t-21.5 133.5q0 74 24 136t66.5 106.5t102 69.5t131.5 25q58 0 103 -14.5t75.5 -35t46.5 -42.5t16 -36t-6 -22.5t-13.5 -12.5t-14 -4.5t-7.5 0.5q-15 27 -37.5 47t-49.5 33.5t-56.5 20.5t-58.5 7
q-56 0 -102.5 -20t-79.5 -56.5t-51.5 -87.5t-18.5 -112q0 -60 16.5 -111t48 -87.5t76.5 -57.5t103 -21q44 0 81.5 12t66 34t47 52.5t23.5 67.5v56h-182q-37 0 -37 28v4q0 29 37 29h192q22 0 36 -14.5t14 -35.5v-277q0 -2 -6 -4.5t-16 -2.5q-17 0 -27.5 12t-10.5 53v41z" />
    <glyph glyph-name="H" unicode="H" horiz-adv-x="679" 
d="M106 -4q-29 0 -29 31v593q0 31 29 31h9q30 0 30 -31v-265h389v265q0 31 29 31h9q30 0 30 -31v-593q0 -31 -30 -31h-9q-29 0 -29 31v266h-389v-266q0 -31 -30 -31h-9z" />
    <glyph glyph-name="I" unicode="I" horiz-adv-x="242" 
d="M116 -4q-29 0 -29 31v593q0 31 29 31h9q30 0 30 -31v-593q0 -31 -30 -31h-9z" />
    <glyph glyph-name="J" unicode="J" horiz-adv-x="437" 
d="M182 -12q-34 0 -62.5 9.5t-49.5 23.5t-32.5 30.5t-11.5 30.5q0 10 6 18.5t13.5 14t13.5 8t7 0.5q15 -33 45 -54.5t71 -21.5q65 0 92.5 36t27.5 121v416q0 31 30 31h9q29 0 29 -31v-416q0 -111 -45.5 -163.5t-142.5 -52.5z" />
    <glyph glyph-name="K" unicode="K" horiz-adv-x="556" 
d="M145 27q0 -31 -30 -31h-9q-29 0 -29 31v593q0 31 29 31h9q30 0 30 -31v-281l296 291q14 14 22 17.5t17 3.5q13 0 20 -5.5t10.5 -12t3.5 -12.5v-6l-294 -283l301 -301q1 -1 0 -6.5t-4.5 -12t-11.5 -11.5t-21 -5q-12 0 -20.5 4t-16.5 12l-302 311v-296z" />
    <glyph glyph-name="L" unicode="L" horiz-adv-x="520" 
d="M115 0q-16 0 -27 11t-11 27v582q0 31 29 31h9q30 0 30 -31v-557h312q31 0 31 -29v-5q0 -29 -31 -29h-342z" />
    <glyph glyph-name="M" unicode="M" horiz-adv-x="741" 
d="M104 -4q-27 0 -27 31v581q0 19 13.5 31t35.5 12h16q26 0 37 -12.5t22 -38.5l170 -377l171 377q11 26 22 38.5t37 12.5h14q22 0 35.5 -12t13.5 -31v-581q0 -31 -29 -31h-8q-28 0 -28 31v546l-170 -369q-9 -20 -21.5 -31.5t-37.5 -11.5q-26 0 -38 11.5t-21 31.5l-169 369
v-546q0 -31 -28 -31h-10z" />
    <glyph glyph-name="N" unicode="N" horiz-adv-x="675" 
d="M104 -4q-27 0 -27 31v578q0 19 9.5 32.5t27.5 13.5h17q19 0 29.5 -9.5t22.5 -26.5l351 -509v514q0 31 28 31h9q27 0 27 -31v-578q0 -20 -9 -33t-26 -13h-5q-19 0 -26.5 6t-17.5 20l-373 539v-534q0 -31 -28 -31h-9z" />
    <glyph glyph-name="O" unicode="O" horiz-adv-x="744" 
d="M371 -12q-71 0 -130 24.5t-101.5 68.5t-66 105.5t-23.5 135.5t24 136t66.5 106.5t102 69.5t130.5 25t130 -24.5t101.5 -68.5t66 -106t23.5 -136t-23.5 -136t-66.5 -106.5t-102.5 -69t-130.5 -24.5zM373 47q55 0 101 20t79.5 56.5t52 87t18.5 111.5q0 60 -19 111t-52.5 88
t-80 58t-101.5 21t-101 -20.5t-79.5 -57t-52 -87t-18.5 -111.5t19 -111.5t52.5 -87.5t80 -57.5t101.5 -20.5z" />
    <glyph glyph-name="P" unicode="P" horiz-adv-x="553" 
d="M279 312q85 0 127.5 35t42.5 102q0 137 -167 137h-137v-274h134zM145 27q0 -13 -7.5 -22t-22.5 -9h-9q-29 0 -29 31v582q0 16 11 27t27 11h166q114 0 176 -51t62 -145q0 -97 -62 -148t-184 -51h-128v-225z" />
    <glyph glyph-name="Q" unicode="Q" horiz-adv-x="744" 
d="M393 230q-10 10 -12 22.5t6 20.5l7 7q9 9 20.5 7t21.5 -12l133 -136q26 35 40.5 81t14.5 102q0 60 -19 111t-52.5 88t-80 58t-101.5 21t-101 -20.5t-79.5 -57t-52 -87t-18.5 -111.5t19 -111.5t52.5 -87.5t80 -57.5t101.5 -20.5q90 0 153 48zM690 19q1 -1 -1 -6t-7 -10.5
t-12.5 -10t-18.5 -4.5q-17 0 -34 17l-48 49q-41 -32 -91 -49t-107 -17q-71 0 -130 24.5t-101.5 68.5t-66 105.5t-23.5 135.5t24 136t66.5 106.5t102 69.5t130.5 25t130 -24.5t101.5 -68.5t66 -106t23.5 -136q0 -68 -21.5 -125.5t-59.5 -102.5z" />
    <glyph glyph-name="R" unicode="R" horiz-adv-x="567" 
d="M299 330q81 0 119 35t38 93q0 128 -161 128h-151v-256h155zM518 28q2 -2 -0.5 -7t-8 -10.5t-13.5 -10t-19 -4.5q-10 0 -20.5 5t-21.5 19l-210 252h-81v-245q0 -13 -7.5 -22t-22.5 -9h-8q-29 0 -29 31v582q0 16 11 27t27 11h178q114 0 173.5 -46.5t59.5 -140.5
q0 -88 -55 -137t-159 -51z" />
    <glyph glyph-name="S" unicode="S" horiz-adv-x="541" 
d="M274 -12q-54 0 -98 13t-74.5 32.5t-47.5 41.5t-17 40q0 11 6 19t13.5 13.5t13.5 7.5t7 1q26 -45 75 -77t121 -32q75 0 117 31.5t42 88.5q0 32 -14.5 53t-39.5 35.5t-57 24t-67 17.5q-37 9 -72.5 20.5t-63.5 32t-45.5 52t-17.5 79.5q0 38 16.5 70.5t45.5 56.5t69 37.5
t86 13.5q50 0 90 -11.5t67.5 -28.5t42 -36.5t14.5 -35.5q0 -11 -6 -19t-13.5 -13.5t-13.5 -7.5t-7 -1q-23 40 -68 67t-105 27q-68 0 -110 -32t-42 -85q0 -31 12 -51t34 -33t52.5 -21.5t67.5 -17.5q39 -9 77 -22t68 -34t48.5 -53.5t18.5 -80.5q0 -41 -16 -74.5t-45.5 -57.5
t-71 -37t-92.5 -13z" />
    <glyph glyph-name="T" unicode="T" horiz-adv-x="584" 
d="M55 585q-31 0 -31 28v5q0 29 31 29h474q31 0 31 -29v-5q0 -28 -31 -28h-203v-558q0 -31 -30 -31h-9q-29 0 -29 31v558h-203z" />
    <glyph glyph-name="U" unicode="U" horiz-adv-x="639" 
d="M318 -12q-123 0 -187 68t-64 199v365q0 31 29 31h9q30 0 30 -31v-360q0 -211 185 -211t185 212v359q0 31 28 31h12q27 0 27 -31v-362q0 -132 -65 -201t-189 -69z" />
    <glyph glyph-name="V" unicode="V" horiz-adv-x="600" 
d="M505 620q7 18 17.5 24.5t21.5 6.5q15 0 27.5 -8t10.5 -12l-237 -612q-5 -13 -14 -19t-31 -6t-31 6t-14 19l-237 612q-2 4 10.5 12t28.5 8q12 0 23 -6.5t18 -24.5l203 -548z" />
    <glyph glyph-name="W" unicode="W" horiz-adv-x="904" 
d="M258 -7q-28 0 -39 6t-14 22l-150 615q-1 3 9.5 9t27.5 6q32 0 42 -42l124 -548l142 463q6 18 17 28t37 10t36 -9.5t17 -28.5l140 -461l127 546q5 22 13 32t25 10t27.5 -6t9.5 -9l-150 -615q-3 -16 -14 -22t-39 -6q-25 0 -34.5 7t-14.5 22l-142 473l-151 -473
q-5 -15 -13 -22t-33 -7z" />
    <glyph glyph-name="X" unicode="X" horiz-adv-x="582" 
d="M293 374l8.5 11.5t22 29.5t30.5 41.5t36 47.5q42 57 96 129q9 12 17 16.5t16 4.5q9 0 16 -4.5t11.5 -10t6.5 -10.5t0 -7l-223 -296l223 -295q2 -2 0 -7t-6.5 -10.5t-12 -10t-17.5 -4.5t-20 5t-18 15l-190 262l-196 -264q-9 -12 -17 -16.5t-16 -4.5q-9 0 -16 4.5t-11.5 10
t-6 10.5t-0.5 7l225 299l-217 292q-1 2 0.5 7t6 10.5t12 10t17.5 4.5t20.5 -5t17.5 -15z" />
    <glyph glyph-name="Y" unicode="Y" horiz-adv-x="549" 
d="M308 27q0 -31 -30 -31h-9q-29 0 -29 31v242l-230 353q-2 4 8 16.5t33 12.5q21 0 34 -23l190 -297l189 296q16 24 34 24q21 0 31.5 -12.5t8.5 -16.5l-230 -353v-242z" />
    <glyph glyph-name="Z" unicode="Z" horiz-adv-x="604" 
d="M109 0q-29 0 -42 11t-13 27v9q0 15 7.5 29.5t32.5 45.5l372 463h-380q-31 0 -31 28v5q0 29 31 29h401q29 0 41.5 -10.5t12.5 -26.5v-9q0 -15 -10.5 -32t-28.5 -40l-375 -467h401q31 0 31 -28v-5q0 -29 -31 -29h-419z" />
    <glyph glyph-name="bracketleft" unicode="[" horiz-adv-x="323" 
d="M117 -197q-16 0 -27 11t-11 27v768q0 16 11 27t27 11h154q18 0 24.5 -6.5t6.5 -19.5v-7q0 -13 -6.5 -19.5t-24.5 -6.5h-130v-726h130q18 0 24.5 -6.5t6.5 -19.5v-7q0 -13 -6.5 -19.5t-24.5 -6.5h-154z" />
    <glyph glyph-name="backslash" unicode="\" horiz-adv-x="323" 
d="M271 -197q-5 0 -8.5 1t-3.5 2l-235 769q-8 26 -8 39t4.5 20.5t11 11t13.5 4.5t13 1q5 0 8.5 -1t3.5 -2l235 -768q8 -26 8 -39t-4.5 -20.5t-11 -11.5t-13.5 -5t-13 -1z" />
    <glyph glyph-name="bracketright" unicode="]" horiz-adv-x="323" 
d="M52 -197q-18 0 -24.5 6.5t-6.5 19.5v7q0 13 6.5 19.5t24.5 6.5h130v726h-130q-18 0 -24.5 6.5t-6.5 19.5v7q0 13 6.5 19.5t24.5 6.5h154q16 0 27 -11t11 -27v-768q0 -16 -11 -27t-27 -11h-154z" />
    <glyph glyph-name="asciicircum" unicode="^" 
d="M249 558q-45 -61 -68 -86.5t-40 -25.5q-22 0 -22 23q0 18 20 43t44 48.5t44.5 39.5t22.5 16t22.5 -16t44.5 -39.5t43.5 -48.5t19.5 -43q0 -23 -21 -23q-17 0 -41 25.5t-69 86.5z" />
    <glyph glyph-name="underscore" unicode="_" horiz-adv-x="465" 
d="M46 -62q-31 0 -31 28v5q0 29 31 29h373q31 0 31 -29v-5q0 -28 -31 -28h-373z" />
    <glyph glyph-name="grave" unicode="`" 
d="M157 620q-37 25 -37 50q0 12 9 19.5t21 7.5q22 0 46 -18q24 -17 47 -38.5t41 -40.5t28.5 -33t8.5 -16t-18.5 2t-40.5 13t-52 23t-53 31z" />
    <glyph glyph-name="a" unicode="a" horiz-adv-x="505" 
d="M207 43q37 0 68 11t54 30.5t36 46t13 58.5v44l-28 -1q-123 -5 -185 -29t-62 -81q0 -36 27.5 -57.5t76.5 -21.5zM378 301q0 62 -34.5 94.5t-99.5 32.5q-58 0 -95 -25.5t-57 -62.5l-6 1t-12.5 4.5t-12.5 11.5t-6 21t12.5 31.5t37 36t61 30t83.5 12.5q91 0 142 -49t51 -136
v-300q0 -2 -6.5 -4.5t-15.5 -2.5q-17 0 -29 12t-12 51v18q-28 -42 -74.5 -65t-103.5 -23q-78 0 -121 36.5t-43 96.5q0 84 82.5 121t248.5 41h10v17z" />
    <glyph glyph-name="b" unicode="b" horiz-adv-x="569" 
d="M131 206q0 -34 14 -63.5t37 -51t53.5 -34t64.5 -12.5q38 0 69 14t53 39.5t34 61t12 78.5q0 42 -12.5 77.5t-34.5 61t-52.5 40t-66.5 14.5q-63 0 -105.5 -30.5t-65.5 -82.5v-112zM131 27q0 -18 -7.5 -24.5t-20.5 -6.5h-7q-13 0 -21 6.5t-8 24.5v647q0 2 6.5 4.5t15.5 2.5
q17 0 30 -12t13 -51v-220q32 43 75 66.5t102 23.5q47 0 88 -17.5t71.5 -50t48 -78.5t17.5 -103q0 -56 -17 -102.5t-48 -79.5t-72.5 -51t-91.5 -18q-65 0 -109.5 26t-64.5 59v-46z" />
    <glyph glyph-name="c" unicode="c" horiz-adv-x="518" 
d="M280 -12q-52 0 -97 19t-78 52.5t-51.5 79.5t-18.5 100t18.5 99.5t51.5 79t78 52t97 18.5t90.5 -14.5t64 -35.5t38 -43.5t12.5 -38.5q0 -11 -6.5 -17.5t-14.5 -10t-14.5 -4t-7.5 0.5q-19 44 -56.5 74.5t-105.5 30.5q-38 0 -71 -14t-57 -39.5t-37.5 -60.5t-13.5 -77
t13.5 -77t37.5 -61t56.5 -40.5t71.5 -14.5q68 0 105.5 30.5t56.5 74.5q1 2 7.5 1t14.5 -4.5t14.5 -10t6.5 -17.5q0 -16 -12.5 -38.5t-38 -43.5t-64 -35.5t-90.5 -14.5z" />
    <glyph glyph-name="d" unicode="d" horiz-adv-x="569" 
d="M438 319q-23 52 -64.5 82t-104.5 30q-38 0 -69 -14t-53 -39.5t-34 -61t-12 -78.5q0 -42 12.5 -77.5t34.5 -61t52.5 -40t66.5 -14.5q33 0 64 12t55 33.5t38 51t14 63.5v114zM437 674q0 2 6.5 4.5t15.5 2.5q17 0 30 -12t13 -51v-591q0 -18 -8 -24.5t-21 -6.5h-7
q-13 0 -20.5 6.5t-7.5 24.5v52q-32 -44 -75 -67.5t-103 -23.5q-47 0 -88 17.5t-71.5 50t-48 78.5t-17.5 103q0 56 17 102.5t48 79.5t73 51t91 18q64 0 108.5 -25.5t64.5 -58.5v270z" />
    <glyph glyph-name="e" unicode="e" horiz-adv-x="531" 
d="M428 276q-5 71 -45.5 113t-107.5 42q-34 0 -63 -11.5t-51.5 -32t-37.5 -49t-20 -62.5h325zM100 220q2 -38 16.5 -70t38.5 -55t56 -36t70 -13q35 0 61 7t45 18.5t33 27t24 32.5q1 1 7 0t13 -5.5t12.5 -12t5.5 -19.5t-13.5 -30.5t-39 -35t-63 -28.5t-85.5 -12
q-54 0 -99.5 18t-78 51t-50.5 78.5t-18 100.5q0 54 18 100.5t50 80t76 52.5t96 19q50 0 91 -17t70 -48.5t45 -76t16 -98.5v-6q0 -14 -6 -18t-21 -4h-370z" />
    <glyph glyph-name="f" unicode="f" horiz-adv-x="330" 
d="M41 418q-18 0 -24.5 6.5t-6.5 19.5v6q0 13 6.5 19.5t24.5 6.5h70v44q0 82 35.5 125.5t104.5 43.5q48 0 71.5 -17t23.5 -39q0 -17 -8.5 -25t-10.5 -6q-11 11 -31.5 20t-44.5 9q-41 0 -59 -27t-18 -87v-41h96q18 0 24.5 -6.5t6.5 -19.5v-6q0 -13 -6.5 -19.5t-24.5 -6.5h-95
v-391q0 -18 -7.5 -24.5t-20.5 -6.5h-7q-13 0 -21 6.5t-8 24.5v391h-70z" />
    <glyph glyph-name="g" unicode="g" horiz-adv-x="471" 
d="M237 18q-34 -1 -65.5 -8.5t-55.5 -20.5t-38 -30.5t-14 -39.5q0 -77 163 -77q82 0 129 22.5t47 64.5q0 22 -15 35.5t-39 23t-53.5 16.5t-58.5 14zM230 188q57 0 92.5 34t35.5 88t-35.5 89t-94.5 35q-56 0 -91 -34t-35 -90q0 -54 35.5 -88t92.5 -34zM382 504
q11 15 20.5 22.5t25.5 7.5q10 0 17.5 -4t12 -9.5t6.5 -10t1 -5.5l-79 -88q18 -22 28.5 -48.5t10.5 -56.5q0 -37 -15 -69t-41 -55.5t-62 -37t-78 -13.5h-13t-13 1q-5 -6 -6 -12t-1 -12q0 -12 8.5 -19.5t25 -13.5t41 -11.5t57.5 -13.5q26 -6 51 -16t44.5 -24.5t32 -35.5
t12.5 -49q0 -67 -64 -104.5t-179 -37.5t-169.5 32t-54.5 98q0 27 12 49.5t32.5 40t48.5 29.5t61 18q-9 8 -15 18.5t-6 27.5q0 14 6 25.5t16 21.5q-54 19 -87 61.5t-33 97.5q0 37 14.5 70t40.5 57.5t61 38.5t77 14q34 0 64.5 -10t55.5 -27z" />
    <glyph glyph-name="h" unicode="h" horiz-adv-x="545" 
d="M132 400q25 39 65 63.5t96 24.5q95 0 142 -57.5t47 -152.5v-251q0 -18 -8 -24.5t-21 -6.5h-7q-13 0 -21 6.5t-8 24.5v247q0 72 -34 112.5t-94 40.5q-71 0 -114 -44t-43 -119v-237q0 -18 -8 -24.5t-21 -6.5h-7q-13 0 -21 6.5t-8 24.5v647q0 2 6.5 4.5t15.5 2.5
q17 0 30 -12t13 -51v-218z" />
    <glyph glyph-name="i" unicode="i" horiz-adv-x="209" 
d="M104 595q-42 0 -42 43t44 43q42 0 42 -43t-44 -43zM101 -4q-13 0 -21 6.5t-8 24.5v422q0 18 8 24.5t21 6.5h7q13 0 21 -6.5t8 -24.5v-422q0 -18 -8 -24.5t-21 -6.5h-7z" />
    <glyph glyph-name="j" unicode="j" horiz-adv-x="209" 
d="M104 595q-42 0 -42 43t44 43q42 0 42 -43t-44 -43zM6 -200q-42 0 -66 16.5t-24 35.5q0 16 8.5 27t10.5 9q11 -11 28.5 -20.5t41.5 -9.5q36 0 51.5 20.5t15.5 68.5v502q0 18 8 24.5t21 6.5h7q13 0 21 -6.5t8 -24.5v-507q0 -69 -33 -105.5t-98 -36.5z" />
    <glyph glyph-name="k" unicode="k" horiz-adv-x="443" 
d="M132 27q0 -18 -8 -24.5t-21 -6.5h-7q-13 0 -21 6.5t-8 24.5v647q0 2 6.5 4.5t15.5 2.5q17 0 30 -12t13 -51v-360l192 196q14 14 24 20t20 6t16.5 -4.5t10.5 -10.5t5 -11t0 -6l-197 -195l228 -223q1 -1 -0.5 -6.5t-6 -11.5t-11.5 -11t-17 -5q-9 0 -18.5 5.5t-23.5 19.5
l-222 221v-215z" />
    <glyph glyph-name="l" unicode="l" horiz-adv-x="209" 
d="M101 -4q-13 0 -21 6.5t-8 24.5v647q0 2 6.5 4.5t15.5 2.5q17 0 30 -12t13 -51v-591q0 -18 -8 -24.5t-21 -6.5h-7z" />
    <glyph glyph-name="m" unicode="m" horiz-adv-x="855" 
d="M131 405q25 37 63.5 60t86.5 23q57 0 97.5 -25.5t60.5 -76.5q24 43 66.5 72.5t102.5 29.5q91 0 137.5 -50.5t46.5 -150.5v-260q0 -18 -8 -24.5t-21 -6.5h-7q-13 0 -21 6.5t-8 24.5v256q0 144 -123 144q-45 0 -83 -26.5t-59 -69.5v-304q0 -18 -8 -24.5t-21 -6.5h-7
q-13 0 -21 6.5t-8 24.5v251q0 149 -123 149q-45 0 -83 -26.5t-59 -69.5v-304q0 -18 -8 -24.5t-21 -6.5h-7q-13 0 -21 6.5t-8 24.5v446q0 2 6.5 4.5t15.5 2.5q17 0 29.5 -12t12.5 -51v-12z" />
    <glyph glyph-name="n" unicode="n" horiz-adv-x="545" 
d="M131 402q25 38 65.5 62t96.5 24q95 0 142 -57.5t47 -152.5v-251q0 -18 -8 -24.5t-21 -6.5h-7q-13 0 -21 6.5t-8 24.5v247q0 72 -33.5 112.5t-94.5 40.5q-56 0 -96 -28t-61 -73v-299q0 -18 -8 -24.5t-21 -6.5h-7q-13 0 -21 6.5t-8 24.5v446q0 2 6.5 4.5t15.5 2.5
q17 0 29.5 -12t12.5 -51v-15z" />
    <glyph glyph-name="o" unicode="o" horiz-adv-x="562" 
d="M281 -12q-54 0 -99 19t-77.5 52.5t-51 79.5t-18.5 100t18.5 99.5t51 79t77.5 52t99 18.5q53 0 98 -19t77.5 -52.5t51 -79.5t18.5 -100t-18.5 -99.5t-51 -79t-77.5 -52t-98 -18.5zM281 45q38 0 71 14.5t57 40t37.5 60.5t13.5 77t-13.5 77.5t-37.5 61.5t-56.5 40.5
t-71.5 14.5t-72 -14.5t-57 -40t-37.5 -60.5t-13.5 -77t13.5 -77.5t37.5 -61.5t57 -40.5t72 -14.5z" />
    <glyph glyph-name="p" unicode="p" horiz-adv-x="569" 
d="M131 206q0 -34 14 -63.5t37 -51t53.5 -34t64.5 -12.5q38 0 69 14t53 39.5t34 61t12 78.5q0 42 -12.5 77.5t-34.5 61t-52.5 40t-66.5 14.5q-63 0 -105.5 -30.5t-65.5 -82.5v-112zM132 -166q0 -18 -8 -24.5t-21 -6.5h-7q-13 0 -21 6.5t-8 24.5v639q0 2 6.5 4.5t15.5 2.5
q17 0 29.5 -12t12.5 -51v-20q32 44 75 67.5t103 23.5q47 0 88 -17.5t71.5 -50t48 -78.5t17.5 -103q0 -56 -17 -102.5t-48 -79.5t-72.5 -51t-91.5 -18q-64 0 -108.5 28.5t-64.5 63.5v-246z" />
    <glyph glyph-name="q" unicode="q" horiz-adv-x="569" 
d="M438 317q-23 53 -64.5 83.5t-104.5 30.5q-38 0 -69 -14t-53 -39.5t-34 -61t-12 -78.5q0 -42 12.5 -77.5t34.5 -61t52.5 -40t66.5 -14.5q33 0 64 12.5t55 34.5t38 51.5t14 63.5v110zM438 417q0 39 12.5 51t29.5 12q9 0 15.5 -2.5t6.5 -4.5v-639q0 -18 -8 -24.5t-21 -6.5
h-7q-13 0 -21 6.5t-8 24.5v244q-32 -43 -75 -66.5t-102 -23.5q-47 0 -88 17.5t-71.5 50t-48 78.5t-17.5 103q0 56 17 102.5t48 79.5t73 51t91 18q65 0 109.5 -26t64.5 -59v14z" />
    <glyph glyph-name="r" unicode="r" horiz-adv-x="338" 
d="M131 388q32 100 126 100q33 0 51 -13t18 -36q0 -18 -8 -27t-10 -7q-11 9 -24.5 14.5t-33.5 5.5q-32 0 -54.5 -16t-36.5 -44t-20.5 -66.5t-6.5 -84.5v-187q0 -18 -8 -24.5t-21 -6.5h-7q-13 0 -21 6.5t-8 24.5v446q0 2 6.5 4.5t15.5 2.5q17 0 29.5 -12t12.5 -51v-29z" />
    <glyph glyph-name="s" unicode="s" horiz-adv-x="454" 
d="M227 -12q-48 0 -84.5 10t-61 25t-37.5 32t-13 30q0 10 5 17t11.5 11.5t12 6t6.5 0.5q24 -33 63.5 -55t99.5 -22t91.5 22t31.5 58q0 21 -9 35t-27 23.5t-44 16t-60 13.5q-28 6 -57.5 14t-54 22.5t-40 37.5t-15.5 59q0 64 49.5 104t132.5 40q44 0 76.5 -9t55 -23
t33.5 -29.5t11 -29.5q0 -9 -5.5 -16t-12 -11.5t-12 -6t-6.5 -0.5q-20 31 -55.5 50.5t-84.5 19.5q-59 0 -89.5 -22.5t-30.5 -57.5q0 -38 33.5 -54t99.5 -30q29 -6 60 -14.5t56.5 -23t42 -38t16.5 -60.5q0 -66 -50 -105.5t-138 -39.5z" />
    <glyph glyph-name="t" unicode="t" horiz-adv-x="346" 
d="M53 418q-18 0 -24.5 6.5t-6.5 19.5v6q0 13 6.5 19.5t24.5 6.5h44v83q0 18 8 24.5t21 6.5h7q13 0 20.5 -6.5t7.5 -24.5v-83h127q18 0 24.5 -6.5t6.5 -19.5v-6q0 -13 -6.5 -19.5t-24.5 -6.5h-127v-271q0 -53 15.5 -78t55.5 -25q25 0 43 9.5t31 25.5q2 2 12 -5.5t10 -26.5
q0 -20 -25 -39.5t-73 -19.5q-70 0 -101.5 38.5t-31.5 113.5v278h-44z" />
    <glyph glyph-name="u" unicode="u" horiz-adv-x="545" 
d="M414 74q-25 -38 -65.5 -62t-96.5 -24q-94 0 -141.5 58t-47.5 152v251q0 18 8 24.5t21 6.5h7q13 0 21 -6.5t8 -24.5v-247q0 -72 34.5 -112.5t98.5 -40.5q52 0 91.5 28t60.5 73v299q0 18 8 24.5t21 6.5h7q13 0 21 -6.5t8 -24.5v-446q0 -2 -6.5 -4.5t-15.5 -2.5
q-17 0 -29.5 12t-12.5 51v15z" />
    <glyph glyph-name="v" unicode="v" horiz-adv-x="473" 
d="M237 59l142 373q11 29 21.5 38.5t25.5 9.5q17 0 25 -8.5t7 -10.5l-175 -441q-5 -13 -13.5 -19.5t-33.5 -6.5q-26 0 -32.5 5.5t-11.5 18.5l-177 443q-1 3 7 11t25 8t27.5 -9.5t21.5 -38.5z" />
    <glyph glyph-name="w" unicode="w" horiz-adv-x="674" 
d="M187 -6q-28 0 -36.5 6t-11.5 19l-115 442q-1 3 10.5 11t27.5 8q11 0 22.5 -10t16.5 -36l87 -374l102 321q5 14 14.5 20.5t34.5 6.5t34.5 -6.5t14.5 -20.5l101 -321l86 374q5 26 16.5 36t22.5 10q15 0 26 -8.5t10 -10.5l-114 -442q-3 -13 -11.5 -19t-36.5 -6q-25 0 -32 6
t-12 19l-105 326l-108 -326q-5 -13 -12 -19t-32 -6z" />
    <glyph glyph-name="x" unicode="x" horiz-adv-x="465" 
d="M229 198l-122 -168q-12 -17 -23.5 -25.5t-25.5 -8.5q-10 0 -16.5 4t-11 9t-6 9.5t-0.5 5.5l169 213l-166 215q-1 1 0.5 5.5t5.5 9.5t10.5 9t16.5 4q17 0 27.5 -9t21.5 -24l126 -170l5.5 7.5t14 19.5t19.5 27t23 31q27 37 61 84q14 19 25.5 26.5t22.5 7.5q10 0 16.5 -4
t11 -9t6 -9.5t0.5 -5.5l-168 -215l165 -213q1 -1 -0.5 -5.5t-5.5 -9.5t-10.5 -9t-16.5 -4q-17 0 -27.5 9t-21.5 24q-35 48 -63 85q-17 22 -26.5 35t-17.5 24t-13.5 18z" />
    <glyph glyph-name="y" unicode="y" horiz-adv-x="472" 
d="M183 -197q-14 0 -24.5 7.5t-9.5 9.5l80 204q-17 0 -25 5t-15 20l-174 412q-1 3 7 11t25 8t27.5 -9.5t21.5 -35.5l151 -373l131 371q9 26 20.5 36.5t27.5 10.5q14 0 24 -7.5t9 -9.5l-230 -617q-10 -26 -21.5 -34.5t-24.5 -8.5z" />
    <glyph glyph-name="z" unicode="z" horiz-adv-x="473" 
d="M71 0q-18 0 -24.5 8t-6.5 20v9q0 9 5.5 17.5t19.5 25.5l278 340h-270q-18 0 -25.5 6t-7.5 19v6q0 13 7.5 19t25.5 6h326q18 0 24.5 -8t6.5 -20v-5q0 -8 -5.5 -16t-19.5 -25l-283 -346h282q18 0 25.5 -6t7.5 -19v-6q0 -13 -7.5 -19t-25.5 -6h-333z" />
    <glyph glyph-name="braceleft" unicode="{" horiz-adv-x="410" 
d="M364 -199q-35 0 -73.5 20t-72 60.5t-56.5 102t-26 145.5l-65 35q-13 7 -21.5 12.5t-13.5 12t-7.5 15t-2.5 22.5t2.5 22.5t7.5 15t13.5 12t21.5 12.5l66 35q3 84 26 145.5t56.5 102t72 60.5t73.5 20q26 0 26 -28q0 -7 -3.5 -15.5t-5.5 -9.5q-50 -10 -83.5 -35t-54.5 -64
t-30.5 -91.5t-11.5 -118.5l-119 -63l118 -63q2 -66 11.5 -118.5t30.5 -91.5t54.5 -64t83.5 -35q2 -1 5.5 -9.5t3.5 -15.5q0 -28 -26 -28z" />
    <glyph glyph-name="bar" unicode="|" horiz-adv-x="243" 
d="M118 -197q-13 0 -21 6.5t-8 24.5v786q0 18 8 24.5t21 6.5h7q13 0 21 -6.5t8 -24.5v-786q0 -18 -8 -24.5t-21 -6.5h-7z" />
    <glyph glyph-name="braceright" unicode="}" horiz-adv-x="410" 
d="M45 -199q-26 0 -26 28q0 7 3.5 15.5t5.5 9.5q50 10 83.5 35t54.5 64t30.5 91.5t11.5 118.5l118 63l-119 63q-2 66 -11.5 118.5t-30.5 91.5t-54.5 64t-83.5 35q-2 1 -5.5 9.5t-3.5 15.5q0 28 26 28q35 0 73.5 -20t72 -60.5t56.5 -102t26 -145.5l66 -35q13 -7 21.5 -12.5
t14 -12t7.5 -15t2 -22.5t-2 -22.5t-7.5 -15t-14 -12t-21.5 -12.5l-65 -35q-3 -84 -26 -145.5t-56.5 -102t-72 -60.5t-73.5 -20z" />
    <glyph glyph-name="asciitilde" unicode="~" horiz-adv-x="499" 
d="M131 168q-25 0 -25 26q0 17 5 33t14.5 28.5t22 20.5t27.5 8q24 0 64.5 -21t83.5 -59q8 26 20 49.5t26 23.5q25 0 25 -26q0 -16 -5 -32.5t-14.5 -29t-22 -20.5t-27.5 -8q-24 0 -64.5 21t-83.5 59q-8 -26 -20 -49.5t-26 -23.5z" />
    <glyph glyph-name="nonbreakingspace" unicode="&#xa0;" horiz-adv-x="170" 
 />
    <glyph glyph-name="exclamdown" unicode="&#xa1;" horiz-adv-x="247" 
d="M119 554q-22 0 -33.5 12t-11.5 33v10q0 44 45 44h10q44 0 44 -44v-10q0 -21 -11.5 -33t-32.5 -12h-10zM111 -4q-14 0 -22.5 8t-6.5 31l22 410q1 11 3.5 17.5t12.5 6.5h8q9 0 11.5 -6.5t3.5 -17.5l22 -410q2 -23 -6.5 -31t-22.5 -8h-25z" />
    <glyph glyph-name="cent" unicode="&#xa2;" horiz-adv-x="539" 
d="M263 30q-100 12 -158 77t-58 174q0 51 16 94.5t44.5 77t68.5 55t87 27.5v91q0 18 7 24.5t20 6.5h5q13 0 20 -6.5t7 -24.5v-90q44 -3 77.5 -16.5t56 -30.5t33.5 -35.5t11 -30.5q0 -11 -5.5 -19t-12 -13t-12 -6.5t-6.5 -0.5q-23 43 -57 66t-88 28v-392q56 3 94 29.5
t58 74.5q1 2 7 0.5t13 -5.5t12.5 -11t5.5 -18q0 -16 -12 -37t-36 -40.5t-59 -33.5t-80 -17v-95q0 -18 -7 -24.5t-20 -6.5h-5q-13 0 -20 6.5t-7 24.5v97zM266 477q-69 -8 -111 -58t-42 -137q0 -82 42 -132t111 -61v388z" />
    <glyph glyph-name="sterling" unicode="&#xa3;" horiz-adv-x="564" 
d="M170 62h320q31 0 31 -29v-5q0 -28 -31 -28h-443q-31 0 -31 28v6q0 28 31 28h56l37 201h-79q-31 0 -31 26v7q0 27 31 27h90l28 153q16 87 62 135t129 48q42 0 73 -13t51.5 -32t30 -41.5t9.5 -41.5q0 -15 -7 -23t-15.5 -11.5t-16 -3t-7.5 1.5q-11 50 -40 78t-78 28
q-58 0 -85.5 -31.5t-39.5 -97.5l-27 -149h166q31 0 31 -27v-7q0 -26 -31 -26h-177z" />
    <glyph glyph-name="currency" unicode="&#xa4;" horiz-adv-x="626" 
d="M67 376q-18 0 -24.5 6.5t-6.5 19.5v6q0 13 6.5 19.5t24.5 6.5h70q20 104 85 164.5t162 60.5q47 0 84.5 -13t63 -31.5t39 -40t13.5 -38.5q0 -12 -6 -19.5t-13 -12t-13 -5.5t-7 0q-26 49 -65 76t-100 27q-67 0 -113.5 -45t-63.5 -123h216q18 0 24.5 -6.5t6.5 -19.5v-6
q0 -13 -6.5 -19.5t-24.5 -6.5h-224q-1 -7 -1 -13.5v-14.5v-48v-12t1 -12h224q18 0 24.5 -6.5t6.5 -19.5v-6q0 -13 -6.5 -19.5t-24.5 -6.5h-216q17 -78 64.5 -125t118.5 -47q62 0 100 29.5t62 82.5q1 2 7 0.5t13.5 -6t13.5 -12.5t6 -20q0 -18 -14 -41t-40 -43t-63 -34
t-82 -14q-103 0 -168.5 60.5t-84.5 169.5h-69q-18 0 -24.5 6.5t-6.5 19.5v6q0 13 6.5 19.5t24.5 6.5h63q-1 6 -1 12.5v13.5v45v14.5t1 14.5h-63z" />
    <glyph glyph-name="yen" unicode="&#xa5;" horiz-adv-x="569" 
d="M92 255q-18 0 -24.5 6.5t-6.5 19.5v6q0 13 6.5 19.5t24.5 6.5h139l-189 309q-1 2 2 6.5t9.5 9.5t15.5 9t19 4q20 0 33 -23l163 -292l167 291q16 24 34 24q9 0 17 -4t13.5 -9t8.5 -9.5t2 -6.5l-189 -309h139q18 0 24.5 -6.5t6.5 -19.5v-6q0 -13 -6.5 -19.5t-24.5 -6.5
h-161v-80h161q18 0 24.5 -6.5t6.5 -19.5v-6q0 -13 -6.5 -19.5t-24.5 -6.5h-161v-90q0 -31 -28 -31h-7q-27 0 -27 31v90h-161q-18 0 -24.5 6.5t-6.5 19.5v6q0 13 6.5 19.5t24.5 6.5h161v80h-161z" />
    <glyph glyph-name="section" unicode="&#xa7;" horiz-adv-x="520" 
d="M149 375q-41 17 -66 45.5t-25 80.5q0 35 16 64t44 50t65.5 32.5t80.5 11.5q52 0 89.5 -12t62 -29t36 -36.5t11.5 -33.5q0 -10 -5.5 -18t-12 -13t-12 -7t-6.5 -1q-27 42 -65.5 66t-97.5 24q-28 0 -53.5 -6t-45 -17.5t-31 -28.5t-11.5 -38q0 -45 41.5 -67t117.5 -39
q36 -8 71.5 -18t64 -27t46.5 -43t18 -66q0 -48 -29.5 -80.5t-78.5 -47.5q41 -15 67.5 -43.5t26.5 -84.5q0 -35 -15.5 -63t-44 -48t-67.5 -31t-87 -11q-59 0 -101.5 13t-69.5 32t-40 40t-13 37q0 10 5.5 18t12.5 13.5t13 7.5t6 1q26 -48 70 -75t116 -27q70 0 110 23t40 65
q0 26 -11 42t-32 27t-51.5 18.5t-69.5 16.5q-36 8 -71.5 18.5t-64 27.5t-46.5 43.5t-18 66.5q0 48 29.5 80t80.5 47zM301 142q25 2 46.5 11.5t37.5 23.5t25 31t9 34q0 25 -13 41.5t-35.5 28t-52.5 19.5t-64 15l-18 4t-17 4q-26 -3 -47.5 -13t-37 -23.5t-24 -30t-8.5 -32.5
q0 -26 13 -43t35.5 -28.5t52.5 -19t64 -15.5q8 -2 17 -3.5t17 -3.5z" />
    <glyph glyph-name="dieresis" unicode="&#xa8;" 
d="M335 548q-23 0 -36.5 13t-13.5 36t13 36t35 13q23 0 36.5 -13t13.5 -36t-13.5 -36t-34.5 -13zM167 548q-23 0 -36.5 13t-13.5 36t13.5 36t34.5 13q23 0 36.5 -13t13.5 -36t-13 -36t-35 -13z" />
    <glyph glyph-name="copyright" unicode="&#xa9;" horiz-adv-x="757" 
d="M378 -12q-72 0 -132 25t-103.5 69t-68 105.5t-24.5 134.5q0 72 25 134t69 107t104.5 70.5t130.5 25.5q72 0 132.5 -25t104 -69t67.5 -105.5t24 -134.5q0 -72 -25 -134t-69 -107t-104 -70.5t-131 -25.5zM380 36q60 0 110.5 21t86.5 59t56 90.5t20 116.5q0 62 -21 114.5
t-58 91t-87.5 60.5t-109.5 22q-60 0 -110.5 -21t-86.5 -59t-56 -90.5t-20 -116.5q0 -62 21 -114.5t58 -91t87.5 -60.5t109.5 -22zM387 144q-39 0 -71.5 13t-56 36.5t-36.5 56.5t-13 72q0 38 13.5 71t37.5 57t56 37.5t69 13.5q40 0 69.5 -13.5t44.5 -28.5q19 -19 19 -38
q0 -9 -5 -15.5t-11 -10.5t-11.5 -5t-6.5 0q-14 26 -39.5 40.5t-60.5 14.5q-23 0 -43.5 -9.5t-36.5 -26t-25 -38.5t-9 -48q0 -27 9 -49.5t25 -39t37.5 -25.5t46.5 -9q37 0 62.5 17t37.5 43q1 2 6.5 0.5t12 -5.5t11.5 -10.5t5 -15.5q0 -18 -24 -44q-15 -16 -44 -28.5
t-69 -12.5z" />
    <glyph glyph-name="ordfeminine" unicode="&#xaa;" horiz-adv-x="427" 
d="M180 258q-68 0 -106 27.5t-38 77.5q0 29 11.5 51.5t42 39.5t83 28t134.5 16q0 51 -25.5 79t-80.5 28q-43 0 -71 -20t-45 -48q0 -1 -5 0t-11.5 4.5t-11.5 10t-5 15.5q0 11 9 26.5t28 30t48 25t69 10.5q83 0 122.5 -43t39.5 -116v-230q0 -2 -6.5 -4t-14.5 -2
q-15 0 -27 10.5t-12 45.5q-21 -29 -55.5 -45.5t-72.5 -16.5zM200 -6q-40 0 -40 40v8q0 41 40 41h8q41 0 41 -41v-8q0 -40 -41 -40h-8zM188 308q25 0 47 8t38 21t25.5 29.5t9.5 34.5v54q-67 -4 -108.5 -12.5t-64.5 -20t-30.5 -25.5t-7.5 -31q0 -27 24 -42.5t67 -15.5z" />
    <glyph glyph-name="guillemotleft" unicode="&#xab;" horiz-adv-x="507" 
d="M432 78q-21 0 -53.5 24t-63 53.5t-52.5 56t-22 31.5t22 31.5t52.5 56t63 53.5t53.5 24h1q11 0 17.5 -7.5t6.5 -15.5v-2q0 -10 -13 -25.5t-34.5 -34t-50 -39.5t-58.5 -42q31 -21 59 -41.5t49.5 -39t34.5 -33.5t13 -25v-3q0 -8 -6.5 -15t-17.5 -7h-1zM218 94
q-19 0 -48.5 21.5t-57.5 48t-47.5 50.5t-19.5 29t19.5 28.5t47.5 50t57.5 48t48.5 21.5h1q9 0 15 -6.5t6 -14.5v-1q0 -9 -11.5 -23t-30.5 -30.5t-44 -35.5t-52 -38q27 -19 52 -37.5t44 -35t30.5 -30.5t11.5 -23v-1q0 -8 -6 -14.5t-15 -6.5h-1z" />
    <glyph glyph-name="logicalnot" unicode="&#xac;" horiz-adv-x="712" 
d="M363 258q-31 0 -31 28v4q0 29 31 29h273q16 0 21 -7t5 -23v-13q0 -63 -21 -116t-59.5 -91t-91.5 -59.5t-117 -21.5q-73 0 -132.5 24.5t-102 68.5t-65.5 105.5t-23 135.5t24 136t66.5 106.5t102 69.5t131.5 25q58 0 103 -14.5t75.5 -35t46.5 -42.5t16 -36q0 -11 -6 -19
t-13.5 -13.5t-13.5 -7.5t-7 -1q-15 27 -38 47.5t-50 34.5t-56.5 21t-58.5 7q-55 0 -101.5 -20.5t-80 -57t-52 -87t-18.5 -111.5q0 -60 18.5 -111t52 -88t79.5 -57.5t101 -20.5q44 0 83.5 13.5t69.5 40.5t48 66.5t20 90.5h-229z" />
    <glyph glyph-name="registered" unicode="&#xae;" horiz-adv-x="757" 
d="M392 333q35 0 54 15.5t19 41.5q0 57 -76 57h-77v-114h80zM378 -12q-72 0 -132 25t-103.5 69t-68 105.5t-24.5 134.5q0 72 25 134t69 107t104.5 70.5t130.5 25.5q72 0 132.5 -25t104 -69t67.5 -105.5t24 -134.5q0 -72 -25 -134t-69 -107t-104 -70.5t-131 -25.5zM380 36
q60 0 110.5 21t86.5 59t56 90.5t20 116.5q0 62 -21 114.5t-58 91t-87.5 60.5t-109.5 22q-60 0 -110.5 -21t-86.5 -59t-56 -90.5t-20 -116.5q0 -62 21 -114.5t58 -91t87.5 -60.5t109.5 -22zM518 176q2 -3 -7 -14t-26 -11q-8 0 -19.5 4.5t-21.5 17.5l-87 110h-44v-104
q0 -28 -26 -28h-8q-26 0 -26 32v281q0 16 9 25t23 9h106q65 0 99.5 -26.5t34.5 -80.5q0 -45 -27 -71.5t-77 -31.5z" />
    <glyph glyph-name="macron" unicode="&#xaf;" 
d="M146 568q-39 0 -39 29v5q0 14 10.5 21t28.5 7h208q39 0 39 -28v-5q0 -29 -39 -29h-208z" />
    <glyph glyph-name="degree" unicode="&#xb0;" horiz-adv-x="408" 
d="M202 346q-33 0 -60.5 11.5t-47.5 32t-31.5 48.5t-11.5 61v9q0 33 12 61t33 48.5t49 32.5t61 12t60.5 -11.5t47.5 -32t31.5 -48.5t11.5 -61v-9q0 -33 -12 -61t-33 -48.5t-49 -32.5t-61 -12zM205 399q42 0 69.5 28.5t27.5 71.5v9q0 21 -8 39.5t-21.5 32t-31.5 21.5t-38 8
q-42 0 -69.5 -28.5t-27.5 -71.5v-9q0 -21 8 -39.5t21.5 -32t31.5 -21.5t38 -8z" />
    <glyph glyph-name="plusminus" unicode="&#xb1;" horiz-adv-x="380" 
d="M328 58q31 0 31 -27v-5q0 -26 -31 -26h-262q-31 0 -31 26v5q0 27 31 27h101v486q-11 -18 -31 -29t-45 -11q-32 0 -52.5 15.5t-20.5 41.5q0 17 10 27.5t11 9.5q10 -11 23.5 -18t33.5 -7q32 0 54 23t24 55h29q30 0 30 -31v-562h95z" />
    <glyph glyph-name="acute" unicode="&#xb4;" 
d="M179 551q-1 2 9 16t28 33t41 40.5t47 38.5q24 18 46 18q12 0 21 -7.5t9 -19.5q0 -25 -37 -50q-25 -17 -53 -31t-52 -23t-40.5 -13t-18.5 -2z" />
    <glyph glyph-name="mu" unicode="&#xb5;" horiz-adv-x="569" 
d="M438 319q-23 52 -64.5 82t-104.5 30q-38 0 -69 -14t-53 -39.5t-34 -61t-12 -78.5q0 -42 12.5 -77.5t34.5 -61t52.5 -40t66.5 -14.5q33 0 64 12t55 33.5t38 51t14 63.5v114zM438 417q0 39 12.5 51t29.5 12q9 0 15.5 -2.5t6.5 -4.5v-446q0 -18 -8 -24.5t-21 -6.5h-7
q-13 0 -21 6.5t-8 24.5v51q-32 -43 -75 -66.5t-102 -23.5q-47 0 -88 17.5t-71.5 50t-48 78.5t-17.5 103q0 56 17 102.5t48 79.5t73 51t91 18q64 0 109 -25.5t65 -58.5v13z" />
    <glyph glyph-name="paragraph" unicode="&#xb6;" horiz-adv-x="618" 
d="M502 -4q-29 0 -29 31v593q0 31 29 31h9q30 0 30 -31v-593q0 -31 -30 -31h-9zM377 -4q-15 0 -22.5 9t-7.5 22v263h-79q-115 0 -175 44t-60 132q0 89 57.5 135.5t172.5 46.5h114q16 0 27 -11t11 -27v-583q0 -31 -29 -31h-9z" />
    <glyph glyph-name="periodcentered" unicode="&#xb7;" horiz-adv-x="221" 
d="M105 193q-44 0 -44 44v10q0 21 11.5 33t32.5 12h10q22 0 33.5 -12t11.5 -33v-10q0 -44 -45 -44h-10z" />
    <glyph glyph-name="cedilla" unicode="&#xb8;" 
d="M192 -225q-3 -3 -10 -4t-13 1t-9.5 6.5t-0.5 12.5l60 125q8 16 14.5 25t25.5 9h5q14 0 24.5 -7.5t10.5 -21.5v-4q0 -8 -7 -17.5t-19 -23.5z" />
    <glyph glyph-name="ordmasculine" unicode="&#xba;" horiz-adv-x="479" 
d="M240 257q-42 0 -78 15.5t-62 42.5t-41 63.5t-15 78.5t15.5 79t42 64t62 43t76.5 16q42 0 77.5 -15.5t61.5 -42.5t41 -63.5t15 -78.5t-15.5 -79t-41.5 -64.5t-61.5 -43t-76.5 -15.5zM234 -6q-40 0 -40 40v8q0 41 40 41h8q41 0 41 -41v-8q0 -40 -41 -40h-8zM240 311
q29 0 54 11t43 31t28 47t10 58t-10.5 58t-28.5 46.5t-42.5 31t-53.5 11.5t-54 -11t-43 -31t-28.5 -46.5t-10.5 -58.5q0 -31 10.5 -57.5t29 -46.5t43.5 -31.5t53 -11.5z" />
    <glyph glyph-name="guillemotright" unicode="&#xbb;" horiz-adv-x="507" 
d="M288 95q-9 0 -15 6.5t-6 14.5v1q0 9 11.5 23t30.5 30.5t44 35.5t52 38q-27 19 -52 37.5t-44 35t-30.5 30.5t-11.5 23v1q0 8 6 14.5t15 6.5h1q20 0 49 -21.5t57 -48t47.5 -50.5t19.5 -29q0 -4 -19.5 -28t-47.5 -50.5t-57 -48t-49 -21.5h-1zM74 78q-11 0 -17.5 7.5
t-6.5 15.5v2q0 10 13 25.5t34.5 34t50 39.5t58.5 42q-31 21 -59 41.5t-49.5 39t-34.5 33.5t-13 25v3q0 8 6.5 15t17.5 7h1q21 0 53.5 -24t63 -53.5t52.5 -56t22 -31.5t-22 -31.5t-52.5 -56t-63 -53.5t-53.5 -24h-1z" />
    <glyph glyph-name="questiondown" unicode="&#xbf;" horiz-adv-x="463" 
d="M250 554q-22 0 -33.5 12t-11.5 33v10q0 44 45 44h10q44 0 44 -44v-10q0 -21 -11.5 -33t-32.5 -12h-10zM224 -12q-45 0 -81 12.5t-61 34.5t-38.5 52t-13.5 65q0 41 15 67.5t37 46.5t48 36.5t48 36.5t37 46.5t15 67.5q0 8 8 12.5t20 4.5q13 0 21 -5t7 -16
q-2 -50 -16.5 -82.5t-35.5 -55t-45 -38t-44.5 -31.5t-34 -35t-13.5 -49q0 -51 33.5 -80.5t95.5 -29.5q39 0 66 12t45 31.5t27.5 43.5t13.5 49q0 2 8 1t17 -5.5t16.5 -13t7.5 -22.5q0 -19 -11.5 -45.5t-36 -51t-63 -42t-92.5 -17.5z" />
    <glyph glyph-name="Agrave" unicode="&#xc0;" horiz-adv-x="609" 
d="M419 271l-116 305l-117 -305h233zM442 211h-279l-70 -184q-7 -18 -17.5 -24.5t-21.5 -6.5q-15 0 -27.5 8t-10.5 12l237 612q5 13 16 19t35 6t35 -6t16 -19l237 -612q2 -4 -10.5 -12t-28.5 -8q-12 0 -23 6.5t-18 24.5zM181 790q-37 25 -37 50q0 12 9 19.5t21 7.5
q22 0 46 -18q24 -17 47 -38.5t41 -40.5t28.5 -33t8.5 -16t-18.5 2t-40.5 13t-52 23t-53 31z" />
    <glyph glyph-name="Aacute" unicode="&#xc1;" horiz-adv-x="609" 
d="M419 271l-116 305l-117 -305h233zM442 211h-279l-70 -184q-7 -18 -17.5 -24.5t-21.5 -6.5q-15 0 -27.5 8t-10.5 12l237 612q5 13 16 19t35 6t35 -6t16 -19l237 -612q2 -4 -10.5 -12t-28.5 -8q-12 0 -23 6.5t-18 24.5zM253 721q-1 2 9 16t28 33t41 40.5t47 38.5
q24 18 46 18q12 0 21 -7.5t9 -19.5q0 -25 -37 -50q-25 -17 -53 -31t-52 -23t-40.5 -13t-18.5 -2z" />
    <glyph glyph-name="Acircumflex" unicode="&#xc2;" horiz-adv-x="609" 
d="M419 271l-116 305l-117 -305h233zM442 211h-279l-70 -184q-7 -18 -17.5 -24.5t-21.5 -6.5q-15 0 -27.5 8t-10.5 12l237 612q5 13 16 19t35 6t35 -6t16 -19l237 -612q2 -4 -10.5 -12t-28.5 -8q-12 0 -23 6.5t-18 24.5zM303 831q-45 -61 -68 -86.5t-40 -25.5q-22 0 -22 23
q0 18 20 43t44 48.5t44.5 39.5t22.5 16t22.5 -16t44.5 -39.5t43.5 -48.5t19.5 -43q0 -23 -21 -23q-17 0 -41 25.5t-69 86.5z" />
    <glyph glyph-name="Atilde" unicode="&#xc3;" horiz-adv-x="609" 
d="M419 271l-116 305l-117 -305h233zM442 211h-279l-70 -184q-7 -18 -17.5 -24.5t-21.5 -6.5q-15 0 -27.5 8t-10.5 12l237 612q5 13 16 19t35 6t35 -6t16 -19l237 -612q2 -4 -10.5 -12t-28.5 -8q-12 0 -23 6.5t-18 24.5zM191 725q-25 0 -25 26q0 17 5 33t14.5 28.5t22 20.5
t27.5 8q24 0 64.5 -21t83.5 -59q8 26 20 49.5t26 23.5q25 0 25 -26q0 -16 -5 -32.5t-14.5 -29t-22 -20.5t-27.5 -8q-24 0 -64.5 21t-83.5 59q-8 -26 -20 -49.5t-26 -23.5z" />
    <glyph glyph-name="Adieresis" unicode="&#xc4;" horiz-adv-x="609" 
d="M419 271l-116 305l-117 -305h233zM442 211h-279l-70 -184q-7 -18 -17.5 -24.5t-21.5 -6.5q-15 0 -27.5 8t-10.5 12l237 612q5 13 16 19t35 6t35 -6t16 -19l237 -612q2 -4 -10.5 -12t-28.5 -8q-12 0 -23 6.5t-18 24.5zM389 718q-23 0 -36.5 13t-13.5 36t13 36t35 13
q23 0 36.5 -13t13.5 -36t-13.5 -36t-34.5 -13zM221 718q-23 0 -36.5 13t-13.5 36t13.5 36t34.5 13q23 0 36.5 -13t13.5 -36t-13 -36t-35 -13z" />
    <glyph glyph-name="Aring" unicode="&#xc5;" horiz-adv-x="609" 
d="M303 647q29 0 48 20.5t19 51.5t-19 52t-48 21t-48 -21t-19 -52q0 -30 19.5 -51t47.5 -21zM442 211h-279l-70 -184q-7 -18 -17.5 -24.5t-21.5 -6.5q-15 0 -27.5 8t-10.5 12l233 601q-29 14 -45.5 40.5t-16.5 61.5q0 25 9 46.5t24.5 37t37 24.5t46.5 9q51 0 83.5 -33
t32.5 -84q0 -35 -16.5 -61.5t-45.5 -40.5l234 -601q2 -4 -10.5 -12t-28.5 -8q-12 0 -23 6.5t-18 24.5zM419 271l-5 13t-13 35t-18.5 49.5t-21.5 56.5q-25 67 -58 153l-117 -307h233z" />
    <glyph glyph-name="AE" unicode="&#xc6;" horiz-adv-x="844" 
d="M420 271l-117 305l-117 -305h234zM442 211h-279l-70 -184q-8 -18 -18 -24.5t-21 -6.5q-15 0 -27.5 8t-10.5 12l233 601q5 13 15.5 21.5t27.5 8.5h478q31 0 31 -28v-6q0 -28 -31 -28h-401l4 -9.5t10 -25t13.5 -35.5t15.5 -41q19 -49 43 -111h244q31 0 31 -28v-6
q0 -28 -31 -28h-219l92 -239h204q31 0 31 -27v-6q0 -29 -31 -29h-214q-26 0 -37 9t-19 29z" />
    <glyph glyph-name="Ccedilla" unicode="&#xc7;" horiz-adv-x="660" 
d="M371 -12q-71 0 -130 24.5t-101.5 68.5t-66 105.5t-23.5 135.5t24 136t66.5 106.5t102 69.5t131.5 25q58 0 103 -14.5t75.5 -35t46.5 -42.5t16 -36q0 -13 -6 -21.5t-13.5 -13t-13.5 -6t-7 -0.5q-15 27 -38 47.5t-50 34.5t-56.5 21t-58.5 7q-55 0 -101.5 -20.5t-80 -57
t-52 -87t-18.5 -111.5q0 -60 19 -111t53 -88t80.5 -57.5t101.5 -20.5q72 0 129 34t80 93q0 2 7 0.5t15.5 -6t15 -13t6.5 -21.5q0 -16 -16.5 -40.5t-49 -48t-80 -40.5t-110.5 -17zM297 -225q-3 -3 -10 -4t-13 1t-9.5 6.5t-0.5 12.5l60 125q8 16 14.5 25t25.5 9h5
q14 0 24.5 -7.5t10.5 -21.5v-4q0 -8 -7 -17.5t-19 -23.5z" />
    <glyph glyph-name="Egrave" unicode="&#xc8;" horiz-adv-x="576" 
d="M115 0q-16 0 -27 11t-11 27v571q0 16 11 27t27 11h387q31 0 31 -28v-6q0 -28 -31 -28h-357v-223h286q31 0 31 -28v-4q0 -28 -31 -28h-286v-240h363q31 0 31 -27v-6q0 -29 -31 -29h-393zM212 790q-37 25 -37 50q0 12 9 19.5t21 7.5q22 0 46 -18q24 -17 47 -38.5t41 -40.5
t28.5 -33t8.5 -16t-18.5 2t-40.5 13t-52 23t-53 31z" />
    <glyph glyph-name="Eacute" unicode="&#xc9;" horiz-adv-x="576" 
d="M115 0q-16 0 -27 11t-11 27v571q0 16 11 27t27 11h387q31 0 31 -28v-6q0 -28 -31 -28h-357v-223h286q31 0 31 -28v-4q0 -28 -31 -28h-286v-240h363q31 0 31 -27v-6q0 -29 -31 -29h-393zM227 721q-1 2 9 16t28 33t41 40.5t47 38.5q24 18 46 18q12 0 21 -7.5t9 -19.5
q0 -25 -37 -50q-25 -17 -53 -31t-52 -23t-40.5 -13t-18.5 -2z" />
    <glyph glyph-name="Ecircumflex" unicode="&#xca;" horiz-adv-x="576" 
d="M115 0q-16 0 -27 11t-11 27v571q0 16 11 27t27 11h387q31 0 31 -28v-6q0 -28 -31 -28h-357v-223h286q31 0 31 -28v-4q0 -28 -31 -28h-286v-240h363q31 0 31 -27v-6q0 -29 -31 -29h-393zM304 831q-45 -61 -68 -86.5t-40 -25.5q-22 0 -22 23q0 18 20 43t44 48.5t44.5 39.5
t22.5 16t22.5 -16t44.5 -39.5t43.5 -48.5t19.5 -43q0 -23 -21 -23q-17 0 -41 25.5t-69 86.5z" />
    <glyph glyph-name="Edieresis" unicode="&#xcb;" horiz-adv-x="576" 
d="M115 0q-16 0 -27 11t-11 27v571q0 16 11 27t27 11h387q31 0 31 -28v-6q0 -28 -31 -28h-357v-223h286q31 0 31 -28v-4q0 -28 -31 -28h-286v-240h363q31 0 31 -27v-6q0 -29 -31 -29h-393zM390 718q-23 0 -36.5 13t-13.5 36t13 36t35 13q23 0 36.5 -13t13.5 -36t-13.5 -36
t-34.5 -13zM222 718q-23 0 -36.5 13t-13.5 36t13.5 36t34.5 13q23 0 36.5 -13t13.5 -36t-13 -36t-35 -13z" />
    <glyph glyph-name="Igrave" unicode="&#xcc;" horiz-adv-x="242" 
d="M116 -4q-29 0 -29 31v593q0 31 29 31h9q30 0 30 -31v-593q0 -31 -30 -31h-9zM8 790q-37 25 -37 50q0 12 9 19.5t21 7.5q22 0 46 -18q24 -17 47 -38.5t41 -40.5t28.5 -33t8.5 -16t-18.5 2t-40.5 13t-52 23t-53 31z" />
    <glyph glyph-name="Iacute" unicode="&#xcd;" horiz-adv-x="242" 
d="M116 -4q-29 0 -29 31v593q0 31 29 31h9q30 0 30 -31v-593q0 -31 -30 -31h-9zM70 721q-1 2 9 16t28 33t41 40.5t47 38.5q24 18 46 18q12 0 21 -7.5t9 -19.5q0 -25 -37 -50q-25 -17 -53 -31t-52 -23t-40.5 -13t-18.5 -2z" />
    <glyph glyph-name="Icircumflex" unicode="&#xce;" horiz-adv-x="242" 
d="M116 -4q-29 0 -29 31v593q0 31 29 31h9q30 0 30 -31v-593q0 -31 -30 -31h-9zM120 831q-45 -61 -68 -86.5t-40 -25.5q-22 0 -22 23q0 18 20 43t44 48.5t44.5 39.5t22.5 16t22.5 -16t44.5 -39.5t43.5 -48.5t19.5 -43q0 -23 -21 -23q-17 0 -41 25.5t-69 86.5z" />
    <glyph glyph-name="Idieresis" unicode="&#xcf;" horiz-adv-x="242" 
d="M116 -4q-29 0 -29 31v593q0 31 29 31h9q30 0 30 -31v-593q0 -31 -30 -31h-9zM206 718q-23 0 -36.5 13t-13.5 36t13 36t35 13q23 0 36.5 -13t13.5 -36t-13.5 -36t-34.5 -13zM38 718q-23 0 -36.5 13t-13.5 36t13.5 36t34.5 13q23 0 36.5 -13t13.5 -36t-13 -36t-35 -13z" />
    <glyph glyph-name="Eth" unicode="&#xd0;" horiz-adv-x="717" 
d="M394 354q18 0 24.5 -7t6.5 -20v-6q0 -13 -6.5 -20t-24.5 -7h-214v-232h132q139 0 212.5 68t73.5 193q0 124 -74 193t-211 69h-133v-231h214zM47 294q-18 0 -24.5 7t-6.5 20v6q0 13 6.5 20t24.5 7h65v255q0 16 11 27t27 11h158q83 0 149.5 -22t113 -63.5t71.5 -101.5
t25 -135q0 -76 -25.5 -136t-73 -102t-114.5 -64.5t-151 -22.5h-153q-16 0 -27 11t-11 27v256h-65z" />
    <glyph glyph-name="Ntilde" unicode="&#xd1;" horiz-adv-x="675" 
d="M104 -4q-27 0 -27 31v578q0 19 9.5 32.5t27.5 13.5h17q19 0 29.5 -9.5t22.5 -26.5l351 -509v514q0 31 28 31h9q27 0 27 -31v-578q0 -20 -9 -33t-26 -13h-5q-19 0 -26.5 6t-17.5 20l-373 539v-534q0 -31 -28 -31h-9zM219 725q-25 0 -25 26q0 17 5 33t14.5 28.5t22 20.5
t27.5 8q24 0 64.5 -21t83.5 -59q8 26 20 49.5t26 23.5q25 0 25 -26q0 -16 -5 -32.5t-14.5 -29t-22 -20.5t-27.5 -8q-24 0 -64.5 21t-83.5 59q-8 -26 -20 -49.5t-26 -23.5z" />
    <glyph glyph-name="Ograve" unicode="&#xd2;" horiz-adv-x="744" 
d="M371 -12q-71 0 -130 24.5t-101.5 68.5t-66 105.5t-23.5 135.5t24 136t66.5 106.5t102 69.5t130.5 25t130 -24.5t101.5 -68.5t66 -106t23.5 -136t-23.5 -136t-66.5 -106.5t-102.5 -69t-130.5 -24.5zM373 47q55 0 101 20t79.5 56.5t52 87t18.5 111.5q0 60 -19 111t-52.5 88
t-80 58t-101.5 21t-101 -20.5t-79.5 -57t-52 -87t-18.5 -111.5t19 -111.5t52.5 -87.5t80 -57.5t101.5 -20.5zM259 790q-37 25 -37 50q0 12 9 19.5t21 7.5q22 0 46 -18q24 -17 47 -38.5t41 -40.5t28.5 -33t8.5 -16t-18.5 2t-40.5 13t-52 23t-53 31z" />
    <glyph glyph-name="Oacute" unicode="&#xd3;" horiz-adv-x="744" 
d="M371 -12q-71 0 -130 24.5t-101.5 68.5t-66 105.5t-23.5 135.5t24 136t66.5 106.5t102 69.5t130.5 25t130 -24.5t101.5 -68.5t66 -106t23.5 -136t-23.5 -136t-66.5 -106.5t-102.5 -69t-130.5 -24.5zM373 47q55 0 101 20t79.5 56.5t52 87t18.5 111.5q0 60 -19 111t-52.5 88
t-80 58t-101.5 21t-101 -20.5t-79.5 -57t-52 -87t-18.5 -111.5t19 -111.5t52.5 -87.5t80 -57.5t101.5 -20.5zM321 721q-1 2 9 16t28 33t41 40.5t47 38.5q24 18 46 18q12 0 21 -7.5t9 -19.5q0 -25 -37 -50q-25 -17 -53 -31t-52 -23t-40.5 -13t-18.5 -2z" />
    <glyph glyph-name="Ocircumflex" unicode="&#xd4;" horiz-adv-x="744" 
d="M371 -12q-71 0 -130 24.5t-101.5 68.5t-66 105.5t-23.5 135.5t24 136t66.5 106.5t102 69.5t130.5 25t130 -24.5t101.5 -68.5t66 -106t23.5 -136t-23.5 -136t-66.5 -106.5t-102.5 -69t-130.5 -24.5zM373 47q55 0 101 20t79.5 56.5t52 87t18.5 111.5q0 60 -19 111t-52.5 88
t-80 58t-101.5 21t-101 -20.5t-79.5 -57t-52 -87t-18.5 -111.5t19 -111.5t52.5 -87.5t80 -57.5t101.5 -20.5zM371 831q-45 -61 -68 -86.5t-40 -25.5q-22 0 -22 23q0 18 20 43t44 48.5t44.5 39.5t22.5 16t22.5 -16t44.5 -39.5t43.5 -48.5t19.5 -43q0 -23 -21 -23
q-17 0 -41 25.5t-69 86.5z" />
    <glyph glyph-name="Otilde" unicode="&#xd5;" horiz-adv-x="744" 
d="M371 -12q-71 0 -130 24.5t-101.5 68.5t-66 105.5t-23.5 135.5t24 136t66.5 106.5t102 69.5t130.5 25t130 -24.5t101.5 -68.5t66 -106t23.5 -136t-23.5 -136t-66.5 -106.5t-102.5 -69t-130.5 -24.5zM373 47q55 0 101 20t79.5 56.5t52 87t18.5 111.5q0 60 -19 111t-52.5 88
t-80 58t-101.5 21t-101 -20.5t-79.5 -57t-52 -87t-18.5 -111.5t19 -111.5t52.5 -87.5t80 -57.5t101.5 -20.5zM254 725q-25 0 -25 26q0 17 5 33t14.5 28.5t22 20.5t27.5 8q24 0 64.5 -21t83.5 -59q8 26 20 49.5t26 23.5q25 0 25 -26q0 -16 -5 -32.5t-14.5 -29t-22 -20.5
t-27.5 -8q-24 0 -64.5 21t-83.5 59q-8 -26 -20 -49.5t-26 -23.5z" />
    <glyph glyph-name="Odieresis" unicode="&#xd6;" horiz-adv-x="744" 
d="M371 -12q-71 0 -130 24.5t-101.5 68.5t-66 105.5t-23.5 135.5t24 136t66.5 106.5t102 69.5t130.5 25t130 -24.5t101.5 -68.5t66 -106t23.5 -136t-23.5 -136t-66.5 -106.5t-102.5 -69t-130.5 -24.5zM373 47q55 0 101 20t79.5 56.5t52 87t18.5 111.5q0 60 -19 111t-52.5 88
t-80 58t-101.5 21t-101 -20.5t-79.5 -57t-52 -87t-18.5 -111.5t19 -111.5t52.5 -87.5t80 -57.5t101.5 -20.5zM457 718q-23 0 -36.5 13t-13.5 36t13 36t35 13q23 0 36.5 -13t13.5 -36t-13.5 -36t-34.5 -13zM289 718q-23 0 -36.5 13t-13.5 36t13.5 36t34.5 13q23 0 36.5 -13
t13.5 -36t-13 -36t-35 -13z" />
    <glyph glyph-name="multiply" unicode="&#xd7;" horiz-adv-x="539" 
d="M103 94q-9 8 -9.5 18.5t11.5 23.5l126 130l-126 128q-12 13 -11.5 23.5t9.5 18.5l4 4q8 9 18.5 9.5t24.5 -13.5l122 -128l122 128q14 14 24.5 13.5t18.5 -9.5l4 -4q9 -8 9.5 -18.5t-11.5 -23.5l-126 -128l126 -130q12 -13 11.5 -23.5t-9.5 -18.5l-4 -4q-8 -9 -18.5 -9.5
t-24.5 13.5l-122 129l-122 -129q-14 -14 -24.5 -13.5t-18.5 9.5z" />
    <glyph glyph-name="Oslash" unicode="&#xd8;" horiz-adv-x="744" 
d="M527 545q-31 25 -70 38.5t-86 13.5q-58 0 -104.5 -20.5t-79.5 -57.5t-51 -86.5t-18 -108.5q0 -51 13.5 -95.5t39.5 -79.5zM569 502q-100 -111 -178 -198q-47 -53 -75 -83.5t-51 -56.5t-38 -42.5l-15 -16.5q32 -26 72.5 -40.5t88.5 -14.5q58 0 104.5 20.5t79.5 57t51 86.5
t18 108q0 106 -57 180zM617 549q37 -45 57 -102t20 -123q0 -71 -23.5 -132.5t-66 -106.5t-102 -71t-131.5 -26q-60 0 -111 18t-92 50l-14 -15t-30 -34q-20 -21 -45 -49q-1 -2 -6.5 0.5t-11.5 7t-10.5 12t-4.5 16.5q0 10 5 21.5t19 27.5l53 59q-35 44 -54 100t-19 120
q0 71 23.5 132.5t66 107t102 71.5t131.5 26q59 0 109 -17t90 -49l80 90q2 2 7 -0.5t11 -7t10.5 -12t4.5 -16.5q0 -10 -5 -21.5t-19 -27.5z" />
    <glyph glyph-name="Ugrave" unicode="&#xd9;" horiz-adv-x="639" 
d="M318 -12q-123 0 -187 68t-64 199v365q0 31 29 31h9q30 0 30 -31v-360q0 -211 185 -211t185 212v359q0 31 28 31h12q27 0 27 -31v-362q0 -132 -65 -201t-189 -69zM215 780q-37 25 -37 50q0 12 9 19.5t21 7.5q22 0 46 -18q24 -17 47 -38.5t41 -40.5t28.5 -33t8.5 -16
t-18.5 2t-40.5 13t-52 23t-53 31z" />
    <glyph glyph-name="Uacute" unicode="&#xda;" horiz-adv-x="639" 
d="M318 -12q-123 0 -187 68t-64 199v365q0 31 29 31h9q30 0 30 -31v-360q0 -211 185 -211t185 212v359q0 31 28 31h12q27 0 27 -31v-362q0 -132 -65 -201t-189 -69zM267 711q-1 2 9 16t28 33t41 40.5t47 38.5q24 18 46 18q12 0 21 -7.5t9 -19.5q0 -25 -37 -50
q-25 -17 -53 -31t-52 -23t-40.5 -13t-18.5 -2z" />
    <glyph glyph-name="Ucircumflex" unicode="&#xdb;" horiz-adv-x="639" 
d="M318 -12q-123 0 -187 68t-64 199v365q0 31 29 31h9q30 0 30 -31v-360q0 -211 185 -211t185 212v359q0 31 28 31h12q27 0 27 -31v-362q0 -132 -65 -201t-189 -69zM317 831q-45 -61 -68 -86.5t-40 -25.5q-22 0 -22 23q0 18 20 43t44 48.5t44.5 39.5t22.5 16t22.5 -16
t44.5 -39.5t43.5 -48.5t19.5 -43q0 -23 -21 -23q-17 0 -41 25.5t-69 86.5z" />
    <glyph glyph-name="Udieresis" unicode="&#xdc;" horiz-adv-x="639" 
d="M318 -12q-123 0 -187 68t-64 199v365q0 31 29 31h9q30 0 30 -31v-360q0 -211 185 -211t185 212v359q0 31 28 31h12q27 0 27 -31v-362q0 -132 -65 -201t-189 -69zM403 718q-23 0 -36.5 13t-13.5 36t13 36t35 13q23 0 36.5 -13t13.5 -36t-13.5 -36t-34.5 -13zM235 718
q-23 0 -36.5 13t-13.5 36t13.5 36t34.5 13q23 0 36.5 -13t13.5 -36t-13 -36t-35 -13z" />
    <glyph glyph-name="Yacute" unicode="&#xdd;" horiz-adv-x="549" 
d="M308 27q0 -31 -30 -31h-9q-29 0 -29 31v242l-230 353q-2 4 8 16.5t33 12.5q21 0 34 -23l190 -297l189 296q16 24 34 24q21 0 31.5 -12.5t8.5 -16.5l-230 -353v-242zM213 711q-1 2 9 16t28 33t41 40.5t47 38.5q24 18 46 18q12 0 21 -7.5t9 -19.5q0 -25 -37 -50
q-25 -17 -53 -31t-52 -23t-40.5 -13t-18.5 -2z" />
    <glyph glyph-name="Thorn" unicode="&#xde;" horiz-adv-x="558" 
d="M281 524q114 0 176 -51t62 -145q0 -97 -62 -148t-184 -51h-128v-102q0 -31 -30 -31h-9q-29 0 -29 31v593q0 31 29 31h9q30 0 30 -31v-96h136zM279 189q85 0 127.5 35t42.5 102q0 137 -167 137h-137v-274h134z" />
    <glyph glyph-name="germandbls" unicode="&#xdf;" horiz-adv-x="526" 
d="M297 380q57 -14 95 -35t61 -48t32.5 -60t9.5 -70t-14.5 -69.5t-39 -57t-58 -38.5t-71.5 -14q-33 0 -58 6.5t-41.5 16.5t-25 22t-8.5 23q0 9 4 16.5t8.5 12.5t8.5 7.5t5 1.5q18 -20 42 -34.5t67 -14.5q24 0 45 9.5t36.5 26t25 39t9.5 47.5t-6.5 49t-23.5 44.5t-46.5 37.5
t-76.5 29q-32 8 -44 21t-12 33q0 8 2.5 15t6.5 13q3 7 8 13q78 -1 117.5 23t39.5 81q0 48 -33.5 76t-91.5 28q-66 0 -102 -39t-36 -124v-440q0 -18 -8 -24.5t-21 -6.5h-7q-13 0 -21 6.5t-8 24.5v441q0 109 55 165t149 56q42 0 76.5 -11.5t59.5 -32.5t38.5 -50t13.5 -64
q0 -139 -162 -151z" />
    <glyph glyph-name="agrave" unicode="&#xe0;" horiz-adv-x="505" 
d="M207 43q37 0 68 11t54 30.5t36 46t13 58.5v44l-28 -1q-123 -5 -185 -29t-62 -81q0 -36 27.5 -57.5t76.5 -21.5zM378 301q0 62 -34.5 94.5t-99.5 32.5q-58 0 -95 -25.5t-57 -62.5l-6 1t-12.5 4.5t-12.5 11.5t-6 21t12.5 31.5t37 36t61 30t83.5 12.5q91 0 142 -49t51 -136
v-300q0 -2 -6.5 -4.5t-15.5 -2.5q-17 0 -29 12t-12 51v18q-28 -42 -74.5 -65t-103.5 -23q-78 0 -121 36.5t-43 96.5q0 84 82.5 121t248.5 41h10v17zM159 620q-37 25 -37 50q0 12 9 19.5t21 7.5q22 0 46 -18q24 -17 47 -38.5t41 -40.5t28.5 -33t8.5 -16t-18.5 2t-40.5 13
t-52 23t-53 31z" />
    <glyph glyph-name="aacute" unicode="&#xe1;" horiz-adv-x="505" 
d="M207 43q37 0 68 11t54 30.5t36 46t13 58.5v44l-28 -1q-123 -5 -185 -29t-62 -81q0 -36 27.5 -57.5t76.5 -21.5zM378 301q0 62 -34.5 94.5t-99.5 32.5q-58 0 -95 -25.5t-57 -62.5l-6 1t-12.5 4.5t-12.5 11.5t-6 21t12.5 31.5t37 36t61 30t83.5 12.5q91 0 142 -49t51 -136
v-300q0 -2 -6.5 -4.5t-15.5 -2.5q-17 0 -29 12t-12 51v18q-28 -42 -74.5 -65t-103.5 -23q-78 0 -121 36.5t-43 96.5q0 84 82.5 121t248.5 41h10v17zM181 551q-1 2 9 16t28 33t41 40.5t47 38.5q24 18 46 18q12 0 21 -7.5t9 -19.5q0 -25 -37 -50q-25 -17 -53 -31t-52 -23
t-40.5 -13t-18.5 -2z" />
    <glyph glyph-name="acircumflex" unicode="&#xe2;" horiz-adv-x="505" 
d="M207 43q37 0 68 11t54 30.5t36 46t13 58.5v44l-28 -1q-123 -5 -185 -29t-62 -81q0 -36 27.5 -57.5t76.5 -21.5zM378 301q0 62 -34.5 94.5t-99.5 32.5q-58 0 -95 -25.5t-57 -62.5l-6 1t-12.5 4.5t-12.5 11.5t-6 21t12.5 31.5t37 36t61 30t83.5 12.5q91 0 142 -49t51 -136
v-300q0 -2 -6.5 -4.5t-15.5 -2.5q-17 0 -29 12t-12 51v18q-28 -42 -74.5 -65t-103.5 -23q-78 0 -121 36.5t-43 96.5q0 84 82.5 121t248.5 41h10v17zM251 661q-45 -61 -68 -86.5t-40 -25.5q-22 0 -22 23q0 18 20 43t44 48.5t44.5 39.5t22.5 16t22.5 -16t44.5 -39.5
t43.5 -48.5t19.5 -43q0 -23 -21 -23q-17 0 -41 25.5t-69 86.5z" />
    <glyph glyph-name="atilde" unicode="&#xe3;" horiz-adv-x="505" 
d="M207 43q37 0 68 11t54 30.5t36 46t13 58.5v44l-28 -1q-123 -5 -185 -29t-62 -81q0 -36 27.5 -57.5t76.5 -21.5zM378 301q0 62 -34.5 94.5t-99.5 32.5q-58 0 -95 -25.5t-57 -62.5l-6 1t-12.5 4.5t-12.5 11.5t-6 21t12.5 31.5t37 36t61 30t83.5 12.5q91 0 142 -49t51 -136
v-300q0 -2 -6.5 -4.5t-15.5 -2.5q-17 0 -29 12t-12 51v18q-28 -42 -74.5 -65t-103.5 -23q-78 0 -121 36.5t-43 96.5q0 84 82.5 121t248.5 41h10v17zM134 555q-25 0 -25 26q0 17 5 33t14.5 28.5t22 20.5t27.5 8q24 0 64.5 -21t83.5 -59q8 26 20 49.5t26 23.5q25 0 25 -26
q0 -16 -5 -32.5t-14.5 -29t-22 -20.5t-27.5 -8q-24 0 -64.5 21t-83.5 59q-8 -26 -20 -49.5t-26 -23.5z" />
    <glyph glyph-name="adieresis" unicode="&#xe4;" horiz-adv-x="505" 
d="M207 43q37 0 68 11t54 30.5t36 46t13 58.5v44l-28 -1q-123 -5 -185 -29t-62 -81q0 -36 27.5 -57.5t76.5 -21.5zM378 301q0 62 -34.5 94.5t-99.5 32.5q-58 0 -95 -25.5t-57 -62.5l-6 1t-12.5 4.5t-12.5 11.5t-6 21t12.5 31.5t37 36t61 30t83.5 12.5q91 0 142 -49t51 -136
v-300q0 -2 -6.5 -4.5t-15.5 -2.5q-17 0 -29 12t-12 51v18q-28 -42 -74.5 -65t-103.5 -23q-78 0 -121 36.5t-43 96.5q0 84 82.5 121t248.5 41h10v17zM337 548q-23 0 -36.5 13t-13.5 36t13 36t35 13q23 0 36.5 -13t13.5 -36t-13.5 -36t-34.5 -13zM169 548q-23 0 -36.5 13
t-13.5 36t13.5 36t34.5 13q23 0 36.5 -13t13.5 -36t-13 -36t-35 -13z" />
    <glyph glyph-name="aring" unicode="&#xe5;" horiz-adv-x="505" 
d="M207 43q37 0 68 11t54 30.5t36 46t13 58.5v44l-28 -1q-123 -5 -185 -29t-62 -81q0 -36 27.5 -57.5t76.5 -21.5zM378 301q0 62 -34.5 94.5t-99.5 32.5q-58 0 -95 -25.5t-57 -62.5l-6 1t-12.5 4.5t-12.5 11.5t-6 21t12.5 31.5t37 36t61 30t83.5 12.5q91 0 142 -49t51 -136
v-300q0 -2 -6.5 -4.5t-15.5 -2.5q-17 0 -29 12t-12 51v18q-28 -42 -74.5 -65t-103.5 -23q-78 0 -121 36.5t-43 96.5q0 84 82.5 121t248.5 41h10v17zM251 548q-51 0 -83.5 33t-32.5 84q0 25 9 46.5t24.5 37t37 24.5t46.5 9q51 0 83.5 -33t32.5 -84q0 -25 -9 -46t-24.5 -37
t-37 -25t-46.5 -9zM251 593q29 0 48 20.5t19 51.5t-19 52t-48 21t-48 -21t-19 -52q0 -30 19.5 -51t47.5 -21z" />
    <glyph glyph-name="ae" unicode="&#xe6;" horiz-adv-x="865" 
d="M762 276q-5 71 -45.5 113t-107.5 42q-34 0 -63 -11.5t-51.5 -32t-37.5 -49t-20 -62.5h325zM207 43q37 0 68 11t54 30.5t36 46t13 58.5v44l-28 -1q-123 -5 -185 -29t-62 -81q0 -36 27.5 -57.5t76.5 -21.5zM378 284v17q0 62 -34.5 94.5t-99.5 32.5q-58 0 -95 -25.5
t-57 -62.5l-6 1t-12.5 4.5t-12.5 11.5t-6 21t12.5 31.5t37 36t61 30t83.5 12.5q66 0 108.5 -28t62.5 -77q29 50 77 77.5t112 27.5q50 0 91 -17t70 -48.5t45 -76t16 -98.5v-6q0 -14 -6 -18t-21 -4h-370q2 -38 16.5 -70t38.5 -55t56 -36t70 -13q35 0 61 7t45 18.5t33 27
t24 32.5q1 1 7 0t13 -5.5t12.5 -12t5.5 -19.5t-13.5 -30.5t-39 -35t-63 -28.5t-85.5 -12q-75 0 -128.5 32t-80.5 90q-26 -54 -80 -87.5t-125 -33.5q-78 0 -121 36.5t-43 96.5q0 84 82.5 121t248.5 41h10z" />
    <glyph glyph-name="ccedilla" unicode="&#xe7;" horiz-adv-x="518" 
d="M280 -12q-52 0 -97 19t-78 52.5t-51.5 79.5t-18.5 100t18.5 99.5t51.5 79t78 52t97 18.5t90.5 -14.5t64 -35.5t38 -43.5t12.5 -38.5q0 -11 -6.5 -17.5t-14.5 -10t-14.5 -4t-7.5 0.5q-19 44 -56.5 74.5t-105.5 30.5q-38 0 -71 -14t-57 -39.5t-37.5 -60.5t-13.5 -77
t13.5 -77t37.5 -61t56.5 -40.5t71.5 -14.5q68 0 105.5 30.5t56.5 74.5q1 2 7.5 1t14.5 -4.5t14.5 -10t6.5 -17.5q0 -16 -12.5 -38.5t-38 -43.5t-64 -35.5t-90.5 -14.5zM217 -225q-3 -3 -10 -4t-13 1t-9.5 6.5t-0.5 12.5l60 125q8 16 14.5 25t25.5 9h5q14 0 24.5 -7.5
t10.5 -21.5v-4q0 -8 -7 -17.5t-19 -23.5z" />
    <glyph glyph-name="egrave" unicode="&#xe8;" horiz-adv-x="531" 
d="M428 276q-5 71 -45.5 113t-107.5 42q-34 0 -63 -11.5t-51.5 -32t-37.5 -49t-20 -62.5h325zM100 220q2 -38 16.5 -70t38.5 -55t56 -36t70 -13q35 0 61 7t45 18.5t33 27t24 32.5q1 1 7 0t13 -5.5t12.5 -12t5.5 -19.5t-13.5 -30.5t-39 -35t-63 -28.5t-85.5 -12
q-54 0 -99.5 18t-78 51t-50.5 78.5t-18 100.5q0 54 18 100.5t50 80t76 52.5t96 19q50 0 91 -17t70 -48.5t45 -76t16 -98.5v-6q0 -14 -6 -18t-21 -4h-370zM167 620q-37 25 -37 50q0 12 9 19.5t21 7.5q22 0 46 -18q24 -17 47 -38.5t41 -40.5t28.5 -33t8.5 -16t-18.5 2
t-40.5 13t-52 23t-53 31z" />
    <glyph glyph-name="eacute" unicode="&#xe9;" horiz-adv-x="531" 
d="M428 276q-5 71 -45.5 113t-107.5 42q-34 0 -63 -11.5t-51.5 -32t-37.5 -49t-20 -62.5h325zM100 220q2 -38 16.5 -70t38.5 -55t56 -36t70 -13q35 0 61 7t45 18.5t33 27t24 32.5q1 1 7 0t13 -5.5t12.5 -12t5.5 -19.5t-13.5 -30.5t-39 -35t-63 -28.5t-85.5 -12
q-54 0 -99.5 18t-78 51t-50.5 78.5t-18 100.5q0 54 18 100.5t50 80t76 52.5t96 19q50 0 91 -17t70 -48.5t45 -76t16 -98.5v-6q0 -14 -6 -18t-21 -4h-370zM204 551q-1 2 9 16t28 33t41 40.5t47 38.5q24 18 46 18q12 0 21 -7.5t9 -19.5q0 -25 -37 -50q-25 -17 -53 -31t-52 -23
t-40.5 -13t-18.5 -2z" />
    <glyph glyph-name="ecircumflex" unicode="&#xea;" horiz-adv-x="531" 
d="M428 276q-5 71 -45.5 113t-107.5 42q-34 0 -63 -11.5t-51.5 -32t-37.5 -49t-20 -62.5h325zM100 220q2 -38 16.5 -70t38.5 -55t56 -36t70 -13q35 0 61 7t45 18.5t33 27t24 32.5q1 1 7 0t13 -5.5t12.5 -12t5.5 -19.5t-13.5 -30.5t-39 -35t-63 -28.5t-85.5 -12
q-54 0 -99.5 18t-78 51t-50.5 78.5t-18 100.5q0 54 18 100.5t50 80t76 52.5t96 19q50 0 91 -17t70 -48.5t45 -76t16 -98.5v-6q0 -14 -6 -18t-21 -4h-370zM274 661q-45 -61 -68 -86.5t-40 -25.5q-22 0 -22 23q0 18 20 43t44 48.5t44.5 39.5t22.5 16t22.5 -16t44.5 -39.5
t43.5 -48.5t19.5 -43q0 -23 -21 -23q-17 0 -41 25.5t-69 86.5z" />
    <glyph glyph-name="edieresis" unicode="&#xeb;" horiz-adv-x="531" 
d="M428 276q-5 71 -45.5 113t-107.5 42q-34 0 -63 -11.5t-51.5 -32t-37.5 -49t-20 -62.5h325zM100 220q2 -38 16.5 -70t38.5 -55t56 -36t70 -13q35 0 61 7t45 18.5t33 27t24 32.5q1 1 7 0t13 -5.5t12.5 -12t5.5 -19.5t-13.5 -30.5t-39 -35t-63 -28.5t-85.5 -12
q-54 0 -99.5 18t-78 51t-50.5 78.5t-18 100.5q0 54 18 100.5t50 80t76 52.5t96 19q50 0 91 -17t70 -48.5t45 -76t16 -98.5v-6q0 -14 -6 -18t-21 -4h-370zM360 548q-23 0 -36.5 13t-13.5 36t13 36t35 13q23 0 36.5 -13t13.5 -36t-13.5 -36t-34.5 -13zM192 548q-23 0 -36.5 13
t-13.5 36t13.5 36t34.5 13q23 0 36.5 -13t13.5 -36t-13 -36t-35 -13z" />
    <glyph glyph-name="igrave" unicode="&#xec;" horiz-adv-x="209" 
d="M101 -4q-13 0 -21 6.5t-8 24.5v422q0 18 8 24.5t21 6.5h7q13 0 21 -6.5t8 -24.5v-422q0 -18 -8 -24.5t-21 -6.5h-7zM-4 620q-37 25 -37 50q0 12 9 19.5t21 7.5q22 0 46 -18q24 -17 47 -38.5t41 -40.5t28.5 -33t8.5 -16t-18.5 2t-40.5 13t-52 23t-53 31z" />
    <glyph glyph-name="iacute" unicode="&#xed;" horiz-adv-x="209" 
d="M101 -4q-13 0 -21 6.5t-8 24.5v422q0 18 8 24.5t21 6.5h7q13 0 21 -6.5t8 -24.5v-422q0 -18 -8 -24.5t-21 -6.5h-7zM58 551q-1 2 9 16t28 33t41 40.5t47 38.5q24 18 46 18q12 0 21 -7.5t9 -19.5q0 -25 -37 -50q-25 -17 -53 -31t-52 -23t-40.5 -13t-18.5 -2z" />
    <glyph glyph-name="icircumflex" unicode="&#xee;" horiz-adv-x="209" 
d="M101 -4q-13 0 -21 6.5t-8 24.5v422q0 18 8 24.5t21 6.5h7q13 0 21 -6.5t8 -24.5v-422q0 -18 -8 -24.5t-21 -6.5h-7zM108 661q-45 -61 -68 -86.5t-40 -25.5q-22 0 -22 23q0 18 20 43t44 48.5t44.5 39.5t22.5 16t22.5 -16t44.5 -39.5t43.5 -48.5t19.5 -43q0 -23 -21 -23
q-17 0 -41 25.5t-69 86.5z" />
    <glyph glyph-name="idieresis" unicode="&#xef;" horiz-adv-x="209" 
d="M101 -4q-13 0 -21 6.5t-8 24.5v422q0 18 8 24.5t21 6.5h7q13 0 21 -6.5t8 -24.5v-422q0 -18 -8 -24.5t-21 -6.5h-7zM194 548q-23 0 -36.5 13t-13.5 36t13 36t35 13q23 0 36.5 -13t13.5 -36t-13.5 -36t-34.5 -13zM26 548q-23 0 -36.5 13t-13.5 36t13.5 36t34.5 13
q23 0 36.5 -13t13.5 -36t-13 -36t-35 -13z" />
    <glyph glyph-name="eth" unicode="&#xf0;" horiz-adv-x="565" 
d="M453 286q-9 16 -26 32t-39.5 29t-49 21t-54.5 8q-86 0 -130.5 -42t-44.5 -120q0 -82 45.5 -125.5t121.5 -43.5q43 0 76 16.5t55.5 45t34 67.5t11.5 84v28zM205 491q-15 -9 -24 -6.5t-15 13.5l-2 4q-7 11 -4.5 20t17.5 18l101 55q-40 20 -84 30t-91 10q-3 0 -3 8.5t5 19
t16 19t31 8.5q41 0 91.5 -14.5t100.5 -47.5l105 61q16 9 25 6.5t15 -13.5l2 -3q7 -11 4.5 -20t-18.5 -18l-87 -48q55 -49 92.5 -127.5t37.5 -191.5q0 -68 -17.5 -121.5t-50 -90t-77.5 -55.5t-100 -19q-52 0 -95 15.5t-73.5 44.5t-47 71t-16.5 94q0 50 17 90.5t48.5 69.5
t75 44.5t95.5 15.5q57 0 104 -24.5t70 -55.5q-11 70 -43 122.5t-80 87.5z" />
    <glyph glyph-name="ntilde" unicode="&#xf1;" horiz-adv-x="545" 
d="M131 402q25 38 65.5 62t96.5 24q95 0 142 -57.5t47 -152.5v-251q0 -18 -8 -24.5t-21 -6.5h-7q-13 0 -21 6.5t-8 24.5v247q0 72 -33.5 112.5t-94.5 40.5q-56 0 -96 -28t-61 -73v-299q0 -18 -8 -24.5t-21 -6.5h-7q-13 0 -21 6.5t-8 24.5v446q0 2 6.5 4.5t15.5 2.5
q17 0 29.5 -12t12.5 -51v-15zM148 555q-25 0 -25 26q0 17 5 33t14.5 28.5t22 20.5t27.5 8q24 0 64.5 -21t83.5 -59q8 26 20 49.5t26 23.5q25 0 25 -26q0 -16 -5 -32.5t-14.5 -29t-22 -20.5t-27.5 -8q-24 0 -64.5 21t-83.5 59q-8 -26 -20 -49.5t-26 -23.5z" />
    <glyph glyph-name="ograve" unicode="&#xf2;" horiz-adv-x="562" 
d="M281 -12q-54 0 -99 19t-77.5 52.5t-51 79.5t-18.5 100t18.5 99.5t51 79t77.5 52t99 18.5q53 0 98 -19t77.5 -52.5t51 -79.5t18.5 -100t-18.5 -99.5t-51 -79t-77.5 -52t-98 -18.5zM281 45q38 0 71 14.5t57 40t37.5 60.5t13.5 77t-13.5 77.5t-37.5 61.5t-56.5 40.5
t-71.5 14.5t-72 -14.5t-57 -40t-37.5 -60.5t-13.5 -77t13.5 -77.5t37.5 -61.5t57 -40.5t72 -14.5zM171 620q-37 25 -37 50q0 12 9 19.5t21 7.5q22 0 46 -18q24 -17 47 -38.5t41 -40.5t28.5 -33t8.5 -16t-18.5 2t-40.5 13t-52 23t-53 31z" />
    <glyph glyph-name="oacute" unicode="&#xf3;" horiz-adv-x="562" 
d="M281 -12q-54 0 -99 19t-77.5 52.5t-51 79.5t-18.5 100t18.5 99.5t51 79t77.5 52t99 18.5q53 0 98 -19t77.5 -52.5t51 -79.5t18.5 -100t-18.5 -99.5t-51 -79t-77.5 -52t-98 -18.5zM281 45q38 0 71 14.5t57 40t37.5 60.5t13.5 77t-13.5 77.5t-37.5 61.5t-56.5 40.5
t-71.5 14.5t-72 -14.5t-57 -40t-37.5 -60.5t-13.5 -77t13.5 -77.5t37.5 -61.5t57 -40.5t72 -14.5zM233 551q-1 2 9 16t28 33t41 40.5t47 38.5q24 18 46 18q12 0 21 -7.5t9 -19.5q0 -25 -37 -50q-25 -17 -53 -31t-52 -23t-40.5 -13t-18.5 -2z" />
    <glyph glyph-name="ocircumflex" unicode="&#xf4;" horiz-adv-x="562" 
d="M281 -12q-54 0 -99 19t-77.5 52.5t-51 79.5t-18.5 100t18.5 99.5t51 79t77.5 52t99 18.5q53 0 98 -19t77.5 -52.5t51 -79.5t18.5 -100t-18.5 -99.5t-51 -79t-77.5 -52t-98 -18.5zM281 45q38 0 71 14.5t57 40t37.5 60.5t13.5 77t-13.5 77.5t-37.5 61.5t-56.5 40.5
t-71.5 14.5t-72 -14.5t-57 -40t-37.5 -60.5t-13.5 -77t13.5 -77.5t37.5 -61.5t57 -40.5t72 -14.5zM283 661q-45 -61 -68 -86.5t-40 -25.5q-22 0 -22 23q0 18 20 43t44 48.5t44.5 39.5t22.5 16t22.5 -16t44.5 -39.5t43.5 -48.5t19.5 -43q0 -23 -21 -23q-17 0 -41 25.5
t-69 86.5z" />
    <glyph glyph-name="otilde" unicode="&#xf5;" horiz-adv-x="562" 
d="M281 -12q-54 0 -99 19t-77.5 52.5t-51 79.5t-18.5 100t18.5 99.5t51 79t77.5 52t99 18.5q53 0 98 -19t77.5 -52.5t51 -79.5t18.5 -100t-18.5 -99.5t-51 -79t-77.5 -52t-98 -18.5zM281 45q38 0 71 14.5t57 40t37.5 60.5t13.5 77t-13.5 77.5t-37.5 61.5t-56.5 40.5
t-71.5 14.5t-72 -14.5t-57 -40t-37.5 -60.5t-13.5 -77t13.5 -77.5t37.5 -61.5t57 -40.5t72 -14.5zM166 555q-25 0 -25 26q0 17 5 33t14.5 28.5t22 20.5t27.5 8q24 0 64.5 -21t83.5 -59q8 26 20 49.5t26 23.5q25 0 25 -26q0 -16 -5 -32.5t-14.5 -29t-22 -20.5t-27.5 -8
q-24 0 -64.5 21t-83.5 59q-8 -26 -20 -49.5t-26 -23.5z" />
    <glyph glyph-name="odieresis" unicode="&#xf6;" horiz-adv-x="562" 
d="M281 -12q-54 0 -99 19t-77.5 52.5t-51 79.5t-18.5 100t18.5 99.5t51 79t77.5 52t99 18.5q53 0 98 -19t77.5 -52.5t51 -79.5t18.5 -100t-18.5 -99.5t-51 -79t-77.5 -52t-98 -18.5zM281 45q38 0 71 14.5t57 40t37.5 60.5t13.5 77t-13.5 77.5t-37.5 61.5t-56.5 40.5
t-71.5 14.5t-72 -14.5t-57 -40t-37.5 -60.5t-13.5 -77t13.5 -77.5t37.5 -61.5t57 -40.5t72 -14.5zM369 548q-23 0 -36.5 13t-13.5 36t13 36t35 13q23 0 36.5 -13t13.5 -36t-13.5 -36t-34.5 -13zM201 548q-23 0 -36.5 13t-13.5 36t13.5 36t34.5 13q23 0 36.5 -13t13.5 -36
t-13 -36t-35 -13z" />
    <glyph glyph-name="oslash" unicode="&#xf8;" horiz-adv-x="562" 
d="M71 -36q-1 -1 -6 0.5t-10 5.5t-9.5 10t-4.5 14t4.5 19t17.5 25l35 38q-26 32 -40.5 73t-14.5 88q0 53 19 98.5t52 79.5t77 53.5t94 19.5q42 0 78.5 -12.5t66.5 -35.5l64 71q1 1 6 -0.5t10 -5.5t9.5 -10t4.5 -14t-4.5 -19t-17.5 -25l-32 -35q26 -33 41 -74t15 -89
q0 -52 -19 -98t-52 -80t-77 -53.5t-94 -19.5q-42 0 -79 13t-68 36zM389 392q-22 17 -48.5 27t-56.5 10q-38 0 -70 -14.5t-55.5 -40t-36.5 -60.5t-13 -76q0 -33 9 -62.5t26 -53.5zM285 47q38 0 70 14.5t55.5 40t36.5 60.5t13 76q0 67 -36 117l-246 -270q23 -18 49.5 -28
t57.5 -10z" />
    <glyph glyph-name="ugrave" unicode="&#xf9;" horiz-adv-x="545" 
d="M414 74q-25 -38 -65.5 -62t-96.5 -24q-94 0 -141.5 58t-47.5 152v251q0 18 8 24.5t21 6.5h7q13 0 21 -6.5t8 -24.5v-247q0 -72 34.5 -112.5t98.5 -40.5q52 0 91.5 28t60.5 73v299q0 18 8 24.5t21 6.5h7q13 0 21 -6.5t8 -24.5v-446q0 -2 -6.5 -4.5t-15.5 -2.5
q-17 0 -29.5 12t-12.5 51v15zM159 620q-37 25 -37 50q0 12 9 19.5t21 7.5q22 0 46 -18q24 -17 47 -38.5t41 -40.5t28.5 -33t8.5 -16t-18.5 2t-40.5 13t-52 23t-53 31z" />
    <glyph glyph-name="uacute" unicode="&#xfa;" horiz-adv-x="545" 
d="M414 74q-25 -38 -65.5 -62t-96.5 -24q-94 0 -141.5 58t-47.5 152v251q0 18 8 24.5t21 6.5h7q13 0 21 -6.5t8 -24.5v-247q0 -72 34.5 -112.5t98.5 -40.5q52 0 91.5 28t60.5 73v299q0 18 8 24.5t21 6.5h7q13 0 21 -6.5t8 -24.5v-446q0 -2 -6.5 -4.5t-15.5 -2.5
q-17 0 -29.5 12t-12.5 51v15zM231 551q-1 2 9 16t28 33t41 40.5t47 38.5q24 18 46 18q12 0 21 -7.5t9 -19.5q0 -25 -37 -50q-25 -17 -53 -31t-52 -23t-40.5 -13t-18.5 -2z" />
    <glyph glyph-name="ucircumflex" unicode="&#xfb;" horiz-adv-x="545" 
d="M414 74q-25 -38 -65.5 -62t-96.5 -24q-94 0 -141.5 58t-47.5 152v251q0 18 8 24.5t21 6.5h7q13 0 21 -6.5t8 -24.5v-247q0 -72 34.5 -112.5t98.5 -40.5q52 0 91.5 28t60.5 73v299q0 18 8 24.5t21 6.5h7q13 0 21 -6.5t8 -24.5v-446q0 -2 -6.5 -4.5t-15.5 -2.5
q-17 0 -29.5 12t-12.5 51v15zM273 661q-45 -61 -68 -86.5t-40 -25.5q-22 0 -22 23q0 18 20 43t44 48.5t44.5 39.5t22.5 16t22.5 -16t44.5 -39.5t43.5 -48.5t19.5 -43q0 -23 -21 -23q-17 0 -41 25.5t-69 86.5z" />
    <glyph glyph-name="udieresis" unicode="&#xfc;" horiz-adv-x="545" 
d="M414 74q-25 -38 -65.5 -62t-96.5 -24q-94 0 -141.5 58t-47.5 152v251q0 18 8 24.5t21 6.5h7q13 0 21 -6.5t8 -24.5v-247q0 -72 34.5 -112.5t98.5 -40.5q52 0 91.5 28t60.5 73v299q0 18 8 24.5t21 6.5h7q13 0 21 -6.5t8 -24.5v-446q0 -2 -6.5 -4.5t-15.5 -2.5
q-17 0 -29.5 12t-12.5 51v15zM360 548q-23 0 -36.5 13t-13.5 36t13 36t35 13q23 0 36.5 -13t13.5 -36t-13.5 -36t-34.5 -13zM192 548q-23 0 -36.5 13t-13.5 36t13.5 36t34.5 13q23 0 36.5 -13t13.5 -36t-13 -36t-35 -13z" />
    <glyph glyph-name="yacute" unicode="&#xfd;" horiz-adv-x="472" 
d="M183 -197q-14 0 -24.5 7.5t-9.5 9.5l80 204q-17 0 -25 5t-15 20l-174 412q-1 3 7 11t25 8t27.5 -9.5t21.5 -35.5l151 -373l131 371q9 26 20.5 36.5t27.5 10.5q14 0 24 -7.5t9 -9.5l-230 -617q-10 -26 -21.5 -34.5t-24.5 -8.5zM185 541q-1 2 9 16t28 33t41 40.5t47 38.5
q24 18 46 18q12 0 21 -7.5t9 -19.5q0 -25 -37 -50q-25 -17 -53 -31t-52 -23t-40.5 -13t-18.5 -2z" />
    <glyph glyph-name="thorn" unicode="&#xfe;" horiz-adv-x="579" 
d="M132 188q3 -31 18 -57t38 -45t52 -30t60 -11q38 0 69 14t53 39.5t34 61t12 78.5q0 42 -12.5 77.5t-34.5 61t-52.5 40t-66.5 14.5q-62 0 -104.5 -30t-65.5 -81v-132zM132 -166q0 -18 -8 -24.5t-21 -6.5h-7q-13 0 -21 6.5t-8 24.5v840q0 2 6.5 4.5t15.5 2.5q17 0 30 -12
t13 -51v-220q32 43 75 66.5t102 23.5q47 0 88 -17.5t71.5 -50t48 -78.5t17.5 -103q0 -56 -17 -102.5t-48 -79.5t-72.5 -51t-91.5 -18q-64 0 -108.5 28.5t-64.5 63.5v-246z" />
    <glyph glyph-name="ydieresis" unicode="&#xff;" horiz-adv-x="472" 
d="M183 -197q-14 0 -24.5 7.5t-9.5 9.5l80 204q-17 0 -25 5t-15 20l-174 412q-1 3 7 11t25 8t27.5 -9.5t21.5 -35.5l151 -373l131 371q9 26 20.5 36.5t27.5 10.5q14 0 24 -7.5t9 -9.5l-230 -617q-10 -26 -21.5 -34.5t-24.5 -8.5zM325 548q-23 0 -36.5 13t-13.5 36t13 36
t35 13q23 0 36.5 -13t13.5 -36t-13.5 -36t-34.5 -13zM157 548q-23 0 -36.5 13t-13.5 36t13.5 36t34.5 13q23 0 36.5 -13t13.5 -36t-13 -36t-35 -13z" />
    <glyph glyph-name="dotlessi" unicode="&#x131;" horiz-adv-x="209" 
d="M101 -4q-13 0 -21 6.5t-8 24.5v422q0 18 8 24.5t21 6.5h7q13 0 21 -6.5t8 -24.5v-422q0 -18 -8 -24.5t-21 -6.5h-7z" />
    <glyph glyph-name="Lslash" unicode="&#x141;" horiz-adv-x="535" 
d="M180 62h302q31 0 31 -29v-5q0 -28 -31 -28h-332q-16 0 -27 11t-11 27v198l-81 -25q-2 -2 -8 8t-6 22t9.5 22.5t35.5 18.5l50 15v323q0 31 29 31h9q30 0 30 -31v-302l202 62q3 1 8.5 -8.5t5.5 -21.5t-10 -22.5t-35 -18.5q-48 -15 -85 -26q-23 -7 -36.5 -11t-24.5 -7.5
t-18 -6l-7 -2.5v-194z" />
    <glyph glyph-name="lslash" unicode="&#x142;" horiz-adv-x="324" 
d="M191 27q0 -18 -8 -24.5t-21 -6.5h-7q-13 0 -21 6.5t-8 24.5v219l-15 -4.5t-33 -9.5q-21 -7 -48 -15q-2 -1 -8 10t-6 21q0 11 9 21t35 18l66 20v367q0 2 6.5 4.5t15.5 2.5q17 0 30 -12t13 -51v-291l103 32q2 1 8 -10t6 -21q0 -11 -9 -21t-35 -18q-20 -6 -36 -11
q-15 -5 -26 -8.5l-11 -3.5v-239z" />
    <glyph glyph-name="OE" unicode="&#x152;" horiz-adv-x="1031" 
d="M371 -12q-71 0 -130 24.5t-101.5 68.5t-66 105.5t-23.5 135.5t24 136t66.5 106.5t102 69.5t130.5 25q50 0 93 -12h491q31 0 31 -28v-6q0 -28 -31 -28h-373q46 -39 74 -95.5t34 -127.5h194q31 0 31 -28v-4q0 -28 -31 -28h-193q-4 -76 -32.5 -137t-77.5 -103h380
q31 0 31 -27v-6q0 -29 -31 -29h-497q-43 -12 -95 -12zM373 47q55 0 101 20t79.5 56.5t52 87t18.5 111.5q0 60 -19 111t-52.5 88t-80 58t-101.5 21t-101 -20.5t-79.5 -57t-52 -87t-18.5 -111.5t19 -111.5t52.5 -87.5t80 -57.5t101.5 -20.5z" />
    <glyph glyph-name="oe" unicode="&#x153;" horiz-adv-x="955" 
d="M852 276q-5 71 -45.5 113t-107.5 42q-34 0 -63 -11.5t-51.5 -32t-37.5 -49t-20 -62.5h325zM281 45q38 0 71 14.5t57 40t37.5 60.5t13.5 77t-13.5 77.5t-37.5 61.5t-56.5 40.5t-71.5 14.5t-72 -14.5t-57 -40t-37.5 -60.5t-13.5 -77t13.5 -77.5t37.5 -61.5t57 -40.5
t72 -14.5zM490 112q-29 -57 -83 -90.5t-126 -33.5q-54 0 -99 19t-77.5 52.5t-51 79.5t-18.5 100t18.5 99.5t51 79t77.5 52t99 18.5q73 0 127.5 -34.5t83.5 -92.5q29 59 82.5 93t124.5 34q50 0 91 -17t70 -48.5t45 -76t16 -98.5v-6q0 -14 -6 -18t-21 -4h-370q2 -38 16.5 -70
t38.5 -55t56 -36t70 -13q35 0 61 7t45 18.5t33 27t24 32.5q1 1 7 0t13 -5.5t12.5 -12t5.5 -19.5t-13.5 -30.5t-39 -35t-63 -28.5t-85.5 -12q-75 0 -130.5 32.5t-84.5 91.5z" />
    <glyph glyph-name="Scaron" unicode="&#x160;" horiz-adv-x="541" 
d="M274 -12q-54 0 -98 13t-74.5 32.5t-47.5 41.5t-17 40q0 11 6 19t13.5 13.5t13.5 7.5t7 1q26 -45 75 -77t121 -32q75 0 117 31.5t42 88.5q0 32 -14.5 53t-39.5 35.5t-57 24t-67 17.5q-37 9 -72.5 20.5t-63.5 32t-45.5 52t-17.5 79.5q0 38 16.5 70.5t45.5 56.5t69 37.5
t86 13.5q50 0 90 -11.5t67.5 -28.5t42 -36.5t14.5 -35.5q0 -11 -6 -19t-13.5 -13.5t-13.5 -7.5t-7 -1q-23 40 -68 67t-105 27q-68 0 -110 -32t-42 -85q0 -31 12 -51t34 -33t52.5 -21.5t67.5 -17.5q39 -9 77 -22t68 -34t48.5 -53.5t18.5 -80.5q0 -41 -16 -74.5t-45.5 -57.5
t-71 -37t-92.5 -13zM275 761q45 61 68 86.5t40 25.5q21 0 21 -23q0 -18 -19.5 -43t-43.5 -48.5t-44.5 -39.5t-22.5 -16t-22.5 16t-44.5 39.5t-43.5 48.5t-19.5 43q0 23 21 23q17 0 41 -25.5t69 -86.5z" />
    <glyph glyph-name="scaron" unicode="&#x161;" horiz-adv-x="454" 
d="M227 -12q-48 0 -84.5 10t-61 25t-37.5 32t-13 30q0 10 5 17t11.5 11.5t12 6t6.5 0.5q24 -33 63.5 -55t99.5 -22t91.5 22t31.5 58q0 21 -9 35t-27 23.5t-44 16t-60 13.5q-28 6 -57.5 14t-54 22.5t-40 37.5t-15.5 59q0 64 49.5 104t132.5 40q44 0 76.5 -9t55 -23
t33.5 -29.5t11 -29.5q0 -9 -5.5 -16t-12 -11.5t-12 -6t-6.5 -0.5q-20 31 -55.5 50.5t-84.5 19.5q-59 0 -89.5 -22.5t-30.5 -57.5q0 -38 33.5 -54t99.5 -30q29 -6 60 -14.5t56.5 -23t42 -38t16.5 -60.5q0 -66 -50 -105.5t-138 -39.5zM221 591q45 61 68 86.5t40 25.5
q21 0 21 -23q0 -18 -19.5 -43t-43.5 -48.5t-44.5 -39.5t-22.5 -16t-22.5 16t-44.5 39.5t-43.5 48.5t-19.5 43q0 23 21 23q17 0 41 -25.5t69 -86.5z" />
    <glyph glyph-name="Ydieresis" unicode="&#x178;" horiz-adv-x="549" 
d="M308 27q0 -31 -30 -31h-9q-29 0 -29 31v242l-230 353q-2 4 8 16.5t33 12.5q21 0 34 -23l190 -297l189 296q16 24 34 24q21 0 31.5 -12.5t8.5 -16.5l-230 -353v-242zM359 718q-23 0 -36.5 13t-13.5 36t13 36t35 13q23 0 36.5 -13t13.5 -36t-13.5 -36t-34.5 -13zM191 718
q-23 0 -36.5 13t-13.5 36t13.5 36t34.5 13q23 0 36.5 -13t13.5 -36t-13 -36t-35 -13z" />
    <glyph glyph-name="Zcaron" unicode="&#x17d;" horiz-adv-x="604" 
d="M109 0q-29 0 -42 11t-13 27v9q0 15 7.5 29.5t32.5 45.5l372 463h-380q-31 0 -31 28v5q0 29 31 29h401q29 0 41.5 -10.5t12.5 -26.5v-9q0 -15 -10.5 -32t-28.5 -40l-375 -467h401q31 0 31 -28v-5q0 -29 -31 -29h-419zM297 761q45 61 68 86.5t40 25.5q21 0 21 -23
q0 -18 -19.5 -43t-43.5 -48.5t-44.5 -39.5t-22.5 -16t-22.5 16t-44.5 39.5t-43.5 48.5t-19.5 43q0 23 21 23q17 0 41 -25.5t69 -86.5z" />
    <glyph glyph-name="zcaron" unicode="&#x17e;" horiz-adv-x="473" 
d="M71 0q-18 0 -24.5 8t-6.5 20v9q0 9 5.5 17.5t19.5 25.5l278 340h-270q-18 0 -25.5 6t-7.5 19v6q0 13 7.5 19t25.5 6h326q18 0 24.5 -8t6.5 -20v-5q0 -8 -5.5 -16t-19.5 -25l-283 -346h282q18 0 25.5 -6t7.5 -19v-6q0 -13 -7.5 -19t-25.5 -6h-333zM232 591q45 61 68 86.5
t40 25.5q21 0 21 -23q0 -18 -19.5 -43t-43.5 -48.5t-44.5 -39.5t-22.5 -16t-22.5 16t-44.5 39.5t-43.5 48.5t-19.5 43q0 23 21 23q17 0 41 -25.5t69 -86.5z" />
    <glyph glyph-name="florin" unicode="&#x192;" horiz-adv-x="383" 
d="M58 378q-18 0 -24.5 6.5t-6.5 19.5v6q0 13 6.5 19.5t24.5 6.5h71l12 64q14 77 51.5 118t99.5 41q42 0 66.5 -17.5t24.5 -39.5q0 -9 -4 -16.5t-8.5 -12.5t-8.5 -8t-4 -2q-10 14 -28 25t-44 11q-35 0 -53.5 -26.5t-28.5 -83.5l-10 -53h120q18 0 24.5 -6.5t6.5 -19.5v-6
q0 -13 -6.5 -19.5t-24.5 -6.5h-129l-60 -328q-9 -54 -42 -54q-14 0 -23 5.5t-8 7.5l67 369h-61z" />
    <glyph glyph-name="circumflex" unicode="&#x2c6;" 
d="M249 661q-45 -61 -68 -86.5t-40 -25.5q-22 0 -22 23q0 18 20 43t44 48.5t44.5 39.5t22.5 16t22.5 -16t44.5 -39.5t43.5 -48.5t19.5 -43q0 -23 -21 -23q-17 0 -41 25.5t-69 86.5z" />
    <glyph glyph-name="caron" unicode="&#x2c7;" 
d="M251 591q45 61 68 86.5t40 25.5q21 0 21 -23q0 -18 -19.5 -43t-43.5 -48.5t-44.5 -39.5t-22.5 -16t-22.5 16t-44.5 39.5t-43.5 48.5t-19.5 43q0 23 21 23q17 0 41 -25.5t69 -86.5z" />
    <glyph glyph-name="breve" unicode="&#x2d8;" 
d="M250 548q-21 0 -46 11t-46 27t-35 34.5t-14 32.5q0 29 29 29q8 0 20.5 -9t27.5 -22.5t32.5 -29.5t33.5 -30q15 14 31.5 30t31.5 29.5t27.5 22.5t19.5 9q29 0 29 -29q0 -15 -14.5 -33.5t-36 -34.5t-46 -26.5t-44.5 -10.5z" />
    <glyph glyph-name="dotaccent" unicode="&#x2d9;" 
d="M250 549q-26 0 -40.5 14.5t-14.5 37.5t15 37.5t41 14.5q25 0 39.5 -14.5t14.5 -37.5t-14.5 -37.5t-40.5 -14.5z" />
    <glyph glyph-name="ring" unicode="&#x2da;" 
d="M249 548q-51 0 -83.5 33t-32.5 84q0 25 9 46.5t24.5 37t37 24.5t46.5 9q51 0 83.5 -33t32.5 -84q0 -25 -9 -46t-24.5 -37t-37 -25t-46.5 -9zM249 593q29 0 48 20.5t19 51.5t-19 52t-48 21t-48 -21t-19 -52q0 -30 19.5 -51t47.5 -21z" />
    <glyph glyph-name="ogonek" unicode="&#x2db;" 
d="M299 -199q-19 0 -25.5 9.5t-14.5 24.5l-88 165h42l99 -125q12 -15 19 -24t7 -17v-4q0 -14 -10 -21.5t-24 -7.5h-5z" />
    <glyph glyph-name="tilde" unicode="&#x2dc;" 
d="M131 555q-25 0 -25 26q0 17 5 33t14.5 28.5t22 20.5t27.5 8q24 0 64.5 -21t83.5 -59q8 26 20 49.5t26 23.5q25 0 25 -26q0 -16 -5 -32.5t-14.5 -29t-22 -20.5t-27.5 -8q-24 0 -64.5 21t-83.5 59q-8 -26 -20 -49.5t-26 -23.5z" />
    <glyph glyph-name="hungarumlaut" unicode="&#x2dd;" 
d="M279 551q-1 2 9 16t28 33t41 40.5t47 38.5q24 18 46 18q12 0 21 -7.5t9 -19.5q0 -25 -37 -50q-25 -17 -53 -31t-52 -23t-40.5 -13t-18.5 -2zM100 551q-1 2 9 16t28 33t41 40.5t47 38.5q24 18 46 18q12 0 21 -7.5t9 -19.5q0 -25 -37 -50q-25 -17 -53 -31t-52 -23
t-40.5 -13t-18.5 -2z" />
    <glyph glyph-name="pi" unicode="&#x3c0;" horiz-adv-x="757" 
d="M378 -12q-72 0 -132 25t-103.5 69t-68 105.5t-24.5 134.5q0 72 25 134t69 107t104.5 70.5t130.5 25.5q72 0 132.5 -25t104 -69t67.5 -105.5t24 -134.5q0 -72 -25 -134t-69 -107t-104 -70.5t-131 -25.5zM380 36q60 0 110.5 21t86.5 59t56 90.5t20 116.5q0 62 -21 114.5
t-58 91t-87.5 60.5t-109.5 22q-60 0 -110.5 -21t-86.5 -59t-56 -90.5t-20 -116.5q0 -62 21 -114.5t58 -91t87.5 -60.5t109.5 -22zM398 306q36 0 55 17.5t19 48.5t-20 48t-58 17h-69v-131h73zM326 167q0 -28 -26 -28h-9q-25 0 -25 28v285q0 15 9 24.5t23 9.5h96
q66 0 101.5 -29t35.5 -84q0 -56 -34.5 -86t-99.5 -30h-71v-90z" />
    <glyph glyph-name="endash" unicode="&#x2013;" horiz-adv-x="525" 
d="M76 213q-18 0 -24.5 6.5t-6.5 19.5v6q0 13 6.5 19.5t24.5 6.5h373q18 0 24.5 -6.5t6.5 -19.5v-6q0 -13 -6.5 -19.5t-24.5 -6.5h-373z" />
    <glyph glyph-name="emdash" unicode="&#x2014;" horiz-adv-x="693" 
d="M76 213q-18 0 -24.5 6.5t-6.5 19.5v6q0 13 6.5 19.5t24.5 6.5h541q18 0 24.5 -6.5t6.5 -19.5v-6q0 -13 -6.5 -19.5t-24.5 -6.5h-541z" />
    <glyph glyph-name="quoteleft" unicode="&#x2018;" horiz-adv-x="202" 
d="M73 426q-13 0 -22 9.5t-9 26.5v3q0 8 3 19.5t14 29.5l84 141q2 4 8.5 5.5t13 -0.5t10.5 -7t1 -13l-59 -178q-7 -17 -14 -26.5t-26 -9.5h-4z" />
    <glyph glyph-name="quoteright" unicode="&#x2019;" horiz-adv-x="202" 
d="M59 432q-2 -4 -8.5 -5t-13 0.5t-10.5 6.5t-1 13l60 178q7 18 13.5 27t25.5 9h5q12 0 21 -9.5t9 -26.5v-3q0 -22 -16 -49z" />
    <glyph glyph-name="quotesinglbase" unicode="&#x201a;" horiz-adv-x="202" 
d="M49 -129q-2 -4 -8.5 -5t-13 0.5t-10.5 6.5t-1 13l60 178q7 18 13.5 27t25.5 9h5q12 0 21 -9.5t9 -26.5v-3q0 -22 -16 -49z" />
    <glyph glyph-name="quotedblleft" unicode="&#x201c;" horiz-adv-x="355" 
d="M226 426q-12 0 -21 9.5t-9 26.5v3q0 22 16 49l85 141q3 4 9.5 5t12.5 -0.5t10 -6.5t1 -13l-60 -178q-6 -19 -13 -27.5t-26 -8.5h-5zM72 426q-12 0 -21 9.5t-9 26.5v3q0 22 16 49l85 141q3 4 9.5 5t12.5 -0.5t10 -6.5t1 -13l-60 -178q-6 -19 -13 -27.5t-26 -8.5h-5z" />
    <glyph glyph-name="quotedblright" unicode="&#x201d;" horiz-adv-x="355" 
d="M212 432q-2 -4 -8.5 -5t-13 0.5t-10.5 6.5t-1 13l60 178q7 18 13.5 27t25.5 9h5q12 0 21 -9.5t9 -26.5v-3q0 -22 -16 -49zM58 432q-2 -4 -8.5 -5t-13 0.5t-10.5 6.5t-1 13l60 178q7 18 13.5 27t25.5 9h5q12 0 21 -9.5t9 -26.5v-3q0 -22 -16 -49z" />
    <glyph glyph-name="quotedblbase" unicode="&#x201e;" horiz-adv-x="355" 
d="M202 -129q-2 -4 -8.5 -5t-13 0.5t-10.5 6.5t-1 13l60 178q7 18 13.5 27t25.5 9h5q12 0 21 -9.5t9 -26.5v-3q0 -22 -16 -49zM48 -129q-2 -4 -8.5 -5t-13 0.5t-10.5 6.5t-1 13l60 178q7 18 13.5 27t25.5 9h5q12 0 21 -9.5t9 -26.5v-3q0 -22 -16 -49z" />
    <glyph glyph-name="dagger" unicode="&#x2020;" horiz-adv-x="510" 
d="M250 -160q-13 0 -16 6t-4 17l-15 435q-1 17 5 39.5t19 42.5l-164 -22q-27 -4 -37 6t-10 32t10 32t37 6l164 -22l-24 194q-4 27 6.5 37t33.5 10t33.5 -10t6.5 -37l-24 -194l164 22q27 4 37 -6t10 -32t-10 -32t-37 -6l-164 22q13 -20 19 -42.5t5 -39.5l-15 -435
q-1 -11 -4 -17t-16 -6h-10z" />
    <glyph glyph-name="daggerdbl" unicode="&#x2021;" horiz-adv-x="510" 
d="M250 -160q-13 0 -16 6t-4 17l-8 240l-147 -21q-27 -4 -37 6t-10 32t10 32t37 6l146 -21l-6 161q-1 17 5.5 40t20.5 42l-166 -22q-27 -4 -37 6t-10 32t10 32t37 6l164 -22l-24 194q-4 27 6.5 37t33.5 10t33.5 -10t6.5 -37l-24 -194l164 22q27 4 37 -6t10 -32t-10 -32
t-37 -6l-166 22q14 -19 20.5 -42t5.5 -40l-6 -161l146 21q27 4 37 -6t10 -32t-10 -32t-37 -6l-147 21l-8 -240q-1 -11 -4 -17t-16 -6h-10z" />
    <glyph glyph-name="bullet" unicode="&#x2022;" horiz-adv-x="324" 
d="M162 139q-21 0 -40 8t-32.5 22t-21.5 33t-8 40t8 40t21.5 33.5t32.5 22.5t40 8t40 -8t32.5 -22.5t21.5 -33.5t8 -40t-8 -40t-21.5 -33t-32.5 -22t-40 -8z" />
    <glyph glyph-name="ellipsis" unicode="&#x2026;" horiz-adv-x="627" 
d="M517 -6q-44 0 -44 44v10q0 21 11.5 33t32.5 12h10q22 0 33.5 -12t11.5 -33v-10q0 -44 -45 -44h-10zM308 -6q-44 0 -44 44v10q0 21 11.5 33t32.5 12h10q22 0 33.5 -12t11.5 -33v-10q0 -44 -45 -44h-10zM99 -6q-44 0 -44 44v10q0 21 11.5 33t32.5 12h10q22 0 33.5 -12
t11.5 -33v-10q0 -44 -45 -44h-10z" />
    <glyph glyph-name="perthousand" unicode="&#x2030;" horiz-adv-x="1086" 
d="M186 347q-31 0 -58.5 12t-47.5 32t-31.5 47t-11.5 58v10q0 31 12 58.5t32 48t47.5 32.5t58.5 12q32 0 59 -11.5t47 -32t31.5 -47.5t11.5 -58v-10q0 -31 -12 -58.5t-32 -48t-47.5 -32.5t-58.5 -12zM113 -8q-1 -1 -6 0t-11 4.5t-10.5 9t-4.5 14.5q0 14 6.5 25t23.5 30
l503 586q1 1 6 0.5t11 -4t10.5 -9.5t4.5 -15q0 -21 -30 -55zM899 -4q-31 0 -58.5 12t-47.5 32t-31.5 47t-11.5 58v10q0 31 12 58.5t32 48t47.5 32.5t58.5 12q32 0 59 -11.5t47 -32t31.5 -47.5t11.5 -58v-10q0 -31 -12 -58.5t-32 -48t-47.5 -32.5t-58.5 -12zM545 -4
q-31 0 -58.5 12t-47.5 32t-31.5 47t-11.5 58v10q0 31 12 58.5t32 48t47.5 32.5t58.5 12q32 0 59 -11.5t47 -32t31.5 -47.5t11.5 -58v-10q0 -31 -12 -58.5t-32 -48t-47.5 -32.5t-58.5 -12zM187 399q39 0 64.5 27t25.5 69v14q0 42 -26 69.5t-65 27.5t-64.5 -27.5t-25.5 -69.5
v-14q0 -41 26 -68.5t65 -27.5zM900 48q39 0 64.5 27t25.5 69v14q0 42 -26 69.5t-65 27.5t-64.5 -27.5t-25.5 -69.5v-14q0 -41 26 -68.5t65 -27.5zM546 48q39 0 64.5 27t25.5 69v14q0 42 -26 69.5t-65 27.5t-64.5 -27.5t-25.5 -69.5v-14q0 -41 26 -68.5t65 -27.5z" />
    <glyph glyph-name="guilsinglleft" unicode="&#x2039;" horiz-adv-x="312" 
d="M106 242q31 -21 59 -41.5t49.5 -39t34.5 -33.5t13 -25v-3q0 -8 -6.5 -15t-17.5 -7h-1q-21 0 -54 24t-63.5 53.5t-52.5 56t-22 31.5t22 31.5t52.5 56t63.5 53.5t54 24h1q11 0 17.5 -7.5t6.5 -15.5v-2q0 -10 -13 -25.5t-34.5 -34t-50 -39.5t-58.5 -42z" />
    <glyph glyph-name="guilsinglright" unicode="&#x203a;" horiz-adv-x="312" 
d="M207 242q-31 21 -59 42t-49.5 39.5t-34.5 34t-13 25.5v2q0 8 6.5 15.5t16.5 7.5h1q21 0 54 -24t63.5 -53.5t52.5 -56t22 -31.5t-22 -31.5t-52.5 -56t-63.5 -53.5t-54 -24h-1q-10 0 -16.5 7t-6.5 15v3q0 10 13 25t34.5 33.5t49.5 39t59 41.5z" />
    <glyph glyph-name="fraction" unicode="&#x2044;" horiz-adv-x="625" 
d="M52 -8q-1 -1 -6 0t-11 4.5t-10.5 9t-4.5 14.5q0 14 6.5 25t23.5 30l523 586q1 1 6 0.5t11 -4t10.5 -9.5t4.5 -15q0 -21 -30 -55z" />
    <glyph glyph-name="Euro" unicode="&#x20ac;" horiz-adv-x="626" 
d="M67 376q-18 0 -24.5 6.5t-6.5 19.5v6q0 13 6.5 19.5t24.5 6.5h70q20 104 85 164.5t162 60.5q47 0 84.5 -13t63 -31.5t39 -40t13.5 -38.5q0 -12 -6 -19.5t-13 -12t-13 -5.5t-7 0q-26 49 -65 76t-100 27q-67 0 -113.5 -45t-63.5 -123h216q18 0 24.5 -6.5t6.5 -19.5v-6
q0 -13 -6.5 -19.5t-24.5 -6.5h-224q-1 -7 -1 -13.5v-14.5v-48v-12t1 -12h224q18 0 24.5 -6.5t6.5 -19.5v-6q0 -13 -6.5 -19.5t-24.5 -6.5h-216q17 -78 64.5 -125t118.5 -47q62 0 100 29.5t62 82.5q1 2 7 0.5t13.5 -6t13.5 -12.5t6 -20q0 -18 -14 -41t-40 -43t-63 -34
t-82 -14q-103 0 -168.5 60.5t-84.5 169.5h-69q-18 0 -24.5 6.5t-6.5 19.5v6q0 13 6.5 19.5t24.5 6.5h63q-1 6 -1 12.5v13.5v45v14.5t1 14.5h-63z" />
    <glyph glyph-name="trademark" unicode="&#x2122;" horiz-adv-x="677" 
d="M358 341q-21 0 -21 25v256q0 29 26 29h25q14 0 19.5 -5.5t10.5 -16.5l63 -156l63 156q5 12 11.5 17t18.5 5h23q26 0 26 -29v-256q0 -25 -22 -25h-7q-21 0 -21 25v213l-65 -161q-2 -6 -6.5 -10t-21.5 -4t-21 4t-6 10l-66 160v-212q0 -25 -20 -25h-9zM45 600q-24 0 -24 22
v4q0 22 24 22h214q24 0 24 -22v-4q0 -22 -24 -22h-80v-234q0 -25 -24 -25h-7q-22 0 -22 25v234h-81z" />
    <glyph glyph-name="Omega" unicode="&#x2126;" horiz-adv-x="545" 
d="M413 83q-26 -38 -66 -61.5t-95 -23.5q-94 0 -141.5 58t-47.5 152v241q0 18 8 24.5t21 6.5h7q13 0 21 -6.5t8 -24.5v-232q0 -73 32 -116.5t101 -43.5q51 0 91 28t61 73v259q0 39 12.5 51t29.5 12q9 0 16 -2.5t7 -4.5v-466q0 -104 -56 -155.5t-163 -51.5q-51 0 -88.5 12.5
t-62 30t-37 36.5t-12.5 33q0 11 5.5 19.5t12.5 13.5t12.5 7t6.5 1q12 -23 26 -40.5t33 -29.5t44 -18t59 -6q80 0 117.5 36t37.5 121v67z" />
    <glyph glyph-name="partialdiff" unicode="&#x2202;" horiz-adv-x="569" 
d="M438 319q-23 52 -64.5 82t-104.5 30q-38 0 -69 -14t-53 -39t-34 -59t-12 -75q0 -85 45 -135.5t121 -50.5q33 0 64 11.5t55 32.5t38 50t14 63v104zM438 417q0 39 12 51t29 12q9 0 16 -2.5t7 -4.5v-449q0 -113 -59 -168.5t-167 -55.5q-51 0 -90 12t-65.5 29t-40.5 36.5
t-14 34.5q0 13 5.5 21.5t12.5 13.5t13 6t7 0q22 -41 63 -68t110 -27q160 0 160 166v64q-32 -42 -75 -64t-102 -22q-49 0 -90.5 17t-71.5 48.5t-46.5 76t-16.5 99.5q0 53 18 98t48.5 77.5t72.5 51t90 18.5q63 0 108.5 -25t65.5 -57v11z" />
    <glyph glyph-name="Delta" unicode="&#x2206;" horiz-adv-x="531" 
d="M428 276q-5 71 -45.5 113t-107.5 42q-34 0 -63 -11.5t-51.5 -32t-37.5 -49t-20 -62.5h325zM100 220q2 -38 16.5 -70t38.5 -55t56 -36t70 -13q35 0 61 7t45 18.5t33 27t24 32.5q1 1 7 0t13 -5.5t12.5 -12t5.5 -19.5t-13.5 -30.5t-39 -35t-63 -28.5t-85.5 -12
q-54 0 -99.5 18t-78 51t-50.5 78.5t-18 100.5q0 54 18 100.5t50 80t76 52.5t96 19q50 0 91 -17t70 -48.5t45 -76t16 -98.5v-6q0 -14 -6 -18t-21 -4h-370z" />
    <glyph glyph-name="product" unicode="&#x220f;" horiz-adv-x="640" 
d="M496 98q-29 -47 -82.5 -78.5t-126.5 -31.5q-114 0 -167 57.5t-53 181.5v393q0 31 29 31h9q30 0 30 -31v-389q0 -98 37 -140t119 -42q35 0 67 12t59 32t47.5 46.5t30.5 56.5v424q0 31 29 31h9q30 0 30 -31v-618q0 -2 -6.5 -4.5t-16.5 -2.5q-16 0 -30 14t-14 61v28z" />
    <glyph glyph-name="summation" unicode="&#x2211;" horiz-adv-x="574" 
d="M366 426q0 31 28 31h8q30 0 30 -31v-180h88q31 0 31 -29v-4q0 -29 -31 -29h-88v-157q0 -31 -30 -31h-8q-28 0 -28 31v157h-275q-29 0 -40 11t-11 27v9q0 20 10.5 37.5t32.5 53.5l185 295q13 21 23.5 27.5t23.5 6.5q16 0 25.5 -11t7.5 -13l-241 -383h259v182z" />
    <glyph glyph-name="radical" unicode="&#x221a;" horiz-adv-x="720" 
d="M360 351q6 25 18 49.5t31 44t46.5 31.5t63.5 12h2q35 0 63 -12.5t48.5 -34.5t31.5 -52.5t11 -65.5v-6q0 -61 -33.5 -107t-82.5 -84t-103.5 -70.5t-95.5 -65.5q-41 33 -95.5 65.5t-103 70.5t-82.5 84t-34 107v6q0 35 11 65.5t31.5 52.5t49 34.5t62.5 12.5h2q36 0 63.5 -12
t46.5 -31.5t31 -44t18 -49.5z" />
    <glyph glyph-name="infinity" unicode="&#x221e;" horiz-adv-x="400" 
d="M59 591q-31 0 -31 25v5q0 26 31 26h282q31 0 31 -26v-5q0 -25 -31 -25h-106v-535h106q31 0 31 -26v-5q0 -25 -31 -25h-282q-31 0 -31 25v5q0 26 31 26h108v535h-108z" />
    <glyph glyph-name="integral" unicode="&#x222b;" horiz-adv-x="578" 
d="M255 261q-100 10 -151.5 80t-51.5 198v81q0 31 29 31h9q30 0 30 -31v-80q0 -222 170 -222q87 0 128.5 54.5t41.5 168.5v79q0 31 29 31h9q28 0 28 -31v-78q0 -131 -51 -201.5t-152 -79.5v-234q0 -31 -30 -31h-9q-29 0 -29 31v234z" />
    <glyph glyph-name="lessequal" unicode="&#x2264;" horiz-adv-x="209" 
d="M104 595q-42 0 -42 43t44 43q42 0 42 -43t-44 -43zM101 -197q-13 0 -21 6.5t-8 24.5v615q0 18 8 24.5t21 6.5h7q13 0 21 -6.5t8 -24.5v-615q0 -18 -8 -24.5t-21 -6.5h-7z" />
    <glyph glyph-name="fi" unicode="&#xfb01;" horiz-adv-x="539" 
d="M431 -4q-13 0 -21 6.5t-8 24.5v422q0 18 8 24.5t21 6.5h7q13 0 21 -6.5t8 -24.5v-422q0 -18 -8 -24.5t-21 -6.5h-7zM41 418q-18 0 -24.5 6.5t-6.5 19.5v6q0 13 6.5 19.5t24.5 6.5h70v44q0 82 35.5 125.5t104.5 43.5q48 0 71.5 -17t23.5 -39q0 -17 -8.5 -25t-10.5 -6
q-11 11 -31.5 20t-44.5 9q-41 0 -59 -27t-18 -87v-41h96q18 0 24.5 -6.5t6.5 -19.5v-6q0 -13 -6.5 -19.5t-24.5 -6.5h-95v-391q0 -18 -7.5 -24.5t-20.5 -6.5h-7q-13 0 -21 6.5t-8 24.5v391h-70zM434 595q-42 0 -42 43t44 43q42 0 42 -43t-44 -43z" />
    <glyph glyph-name="fl" unicode="&#xfb02;" horiz-adv-x="539" 
d="M431 -4q-13 0 -21 6.5t-8 24.5v647q0 2 6.5 4.5t15.5 2.5q17 0 30 -12t13 -51v-591q0 -18 -8 -24.5t-21 -6.5h-7zM41 418q-18 0 -24.5 6.5t-6.5 19.5v6q0 13 6.5 19.5t24.5 6.5h70v44q0 82 35.5 125.5t104.5 43.5q48 0 71.5 -17t23.5 -39q0 -17 -8.5 -25t-10.5 -6
q-11 11 -31.5 20t-44.5 9q-41 0 -59 -27t-18 -87v-41h96q18 0 24.5 -6.5t6.5 -19.5v-6q0 -13 -6.5 -19.5t-24.5 -6.5h-95v-391q0 -18 -7.5 -24.5t-20.5 -6.5h-7q-13 0 -21 6.5t-8 24.5v391h-70z" />
    <glyph glyph-name="apple" horiz-adv-x="758" 
d="M295 27l-134 -58q-12 -5 -22.5 -3.5t-17 8t-8 17t3.5 22.5l58 134l-136 53q-12 5 -18 13.5t-6 17.5t6 18t18 13l136 53l-58 134q-5 12 -3.5 22.5t8 17t17 8t22.5 -3.5l134 -58l53 136q5 12 13.5 18t17.5 6t18 -6t13 -18l53 -136l134 58q12 5 22.5 3.5t17 -8t8 -17
t-3.5 -22.5l-58 -134l136 -53q12 -4 18 -13t6 -18t-6 -17.5t-18 -13.5l-136 -53l58 -134q5 -12 3.5 -22.5t-8 -17t-17 -8t-22.5 3.5l-134 58l-53 -136q-4 -12 -13 -18t-18 -6t-17.5 6t-13.5 18zM428 76q3 7 10.5 10.5t14.5 0.5l120 -50l-50 120q-3 7 0.5 14.5t10.5 10.5
l119 49l-119 49q-7 3 -10.5 10.5t-0.5 14.5l50 120l-120 -50q-8 -3 -15 0.5t-10 10.5l-49 119l-49 -119q-3 -7 -10.5 -10.5t-14.5 -0.5l-120 50l50 -120q3 -7 -0.5 -14.5t-10.5 -10.5l-119 -49l119 -49q7 -3 10.5 -10.5t0.5 -14.5l-50 -120l120 50q7 3 14.5 -0.5t10.5 -10.5
l49 -119z" />
  </font>
</defs>
</svg>
